ML
     
  Уважаемый Гость!
Вы можете поддержать проект и зарегистрироваться у наших партнеров - онлайн-стратегия MyLands. При регистрации в игре Вы получите код, который сможете активировать после регистрации на pirat.ca и получить 1000 дублонов.

Ваш код:
0af2e2107bc9b5dd5ac2c09f9fc25e1a77c43887
 
     

Невероятные приключения кота / Огги и тараканы / Oggy et les cafards (Оливер Жан-Мари / Oliver Jean-Marie) [2013 г., мультфильм, комедия, семейный, DVDRip]

Ответить на тему
 
Автор
Сообщение

Пост 07-Дек-2013 07:34

[Q] 

aleksey99

--Невероятные приключения кота / Огги и тараканы / Oggy et les cafards-- Производство: Франция / Xilam, France 3 Cinema, B Media Kids
Год выпуска: 2013 г.
Жанр: мультфильм, комедия, семейный
Продолжительность: 01:22:01--Мировая премьера: 7 августа 2013
Российская премьера: 26 сентября 2013, «Премиум Фильм»
Релиз на DVD: 23 января 2014, «CP Дистрибуция»--Перевод: Не требуется (в мультфильме только музыкальное сопровождение (диалогов нет))--Режиссер: Оливер Жан-Мари / Oliver Jean-Marie--Описание: Добродушный кот Огги любит поесть, поспать и помечтать о высоком. Но его вечно одолевают несносные соседи, отравляя его жизнь злыми шутками и приколами. Кот гоняется за ними с неослабевающим азартом, придумывает всё новые и новые хитроумные уловки, но увы… Покой ему только снится.-- --Качество видео: DVDRip
Контейнер: AVI
Видео кодек: DivX
Аудио кодек: AC3
Видео: 720x384 (1.88:1), 23.970 fps, DivX Codec 4.x ~2169 kbps avg, 0.33 bit/pixel
Аудио: 48 kHz, AC3 Dolby Digital, 2/0 (L,R) ch, ~224 kbps
Cубтитры: Отсутствуют
Общее
Полное имя : H:\Torrent2\Neveroyatnye.priklu4eniya.kota.2013.DVDRip_[pirat.ca].avi
Формат : AVI
Формат/Информация : Audio Video Interleave
Профиль формата : OpenDML
Размер файла : 1,38 Гбайт
Продолжительность : 1 ч. 22 м.
Общий поток : 2406 Кбит/сек
Программа кодирования : Lavf52.93.0
Видео
Идентификатор : 0
Формат : MPEG-4 Visual
Профиль формата : [email protected]
Параметр BVOP формата : Нет
Параметр QPel формата : Нет
Параметр GMC формата : Без точки перехода
Параметр матрицы формата : Default (H.263)
Идентификатор кодека : DIVX
Идентификатор кодека/Информация : Project Mayo
Идентификатор кодека/Подсказка : DivX 4
Продолжительность : 1 ч. 22 м.
Битрейт : 2169 Кбит/сек
Ширина : 720 пикселей
Высота : 384 пикселя
Соотношение сторон : 1,85:1
Частота кадров : 23,976 кадра/сек
Цветовое пространство : YUV
Субдискретизация насыщенности : 4:2:0
Битовая глубина : 8 бит
Тип развёртки : Прогрессивная
Метод сжатия : С потерями
Бит/(Пиксели*Кадры) : 0.327
Размер потока : 1,24 Гбайт (90%)
Библиотека кодирования : Lavc52.108.0
Аудио
Идентификатор : 1
Формат : AC-3
Формат/Информация : Audio Coding 3
Расширение режима : CM (complete main)
Параметр Endianness формата : Big
Идентификатор кодека : 2000
Продолжительность : 1 ч. 22 м.
Вид битрейта : Постоянный
Битрейт : 224 Кбит/сек
Каналы : 2 канала
Расположение каналов : Front: L R
Частота : 48,0 КГц
Битовая глубина : 16 бит
Метод сжатия : С потерями
Размер потока : 131 Мбайт (9%)
Выравнивание : Соединение по промежуткам
Продолжительность промежутка : 32 мс. (0,77 видеокадр)
Время предзагрузки промежутка : 64 мс.
Трейлер
Download / Скачать

Хотите скачать бесплатно? Зарегистрируйтесь на сайте (ссылка на регистрацию). Pirat.ca - самый быстрый торрент трекер в рунете!

Как скачивать  ·   Что такое торрент  ·   Рейтинг и ограничения

Пост 07-Дек-2013 10:03 (спустя 2 часа 29 минут)

Топик был перенесен из форума Мультфильмы (Трюм) в форум Новинки (HD|DVD|BD| TV|SAT|PDTV| - Rips)
ara1205
 

law-z

Штурман

Пост 07-Дек-2013 12:53 (спустя 5 часов)

[Q] 

Ребенок очень ждал. Спасибо!!!
[Профиль]  [ЛС] 

nokia_series

Корсар

Пост 07-Дек-2013 14:11 (спустя 1 час 18 минут)

[Q] 

Спасибо большое, мой ребёнок оценит... ну и я заодно)))
[Профиль]  [ЛС] 

allexxxv

Морской Волк

Пост 08-Дек-2013 08:45 (спустя 18 часов)

[Q] 

Спасибо!!! Супер!
[Профиль]  [ЛС] 

Jek@

Легенда

Пост 09-Дек-2013 05:35 (спустя 20 часов)

[Q] 

Спасибо!!! .
[Профиль]  [ЛС] 

spartakov

Штурман

Пост 15-Дек-2013 20:06 (спустя 6 дней)

[Q] 

дите получит это как подарок
[Профиль]  [ЛС] 

zvyagin_da

Пост 15-Дек-2013 23:29 (спустя 3 часа)

[Q] 

Спасибо посмотрим ( надеюсь детю понравится)
[Профиль]  [ЛС] 

femaxx

Корсар

Пост 16-Дек-2013 14:17 (спустя 14 часов)

[Q] 

Спасибо Супер!
[Профиль]  [ЛС] 

Voland57

Корсар

Пост 16-Дек-2013 19:46 (спустя 5 часов)

[Q] 

Супер! Спасибо!!! Спасибо!
[Профиль]  [ЛС] 

Dewars

Морской Волк

99

Пост 31-Дек-2013 00:31 (спустя 14 дней)

[Q] 

сами смотрят, а отписывают типа детям качали bj
[Профиль]  [ЛС] 

Hausser

Гроза морей

Пост 05-Янв-2014 22:51 (спустя 5 дней)

[Q] 

Прикольный мульт Раздающему респект! Лови бочку
[Профиль]  [ЛС] 

vesna_7777

Корсар

Пост 28-Янв-2014 17:29 (спустя 22 дня)

[Q] 

Спасибо Лови бочку
[Профиль]  [ЛС] 
Показать сообщения:    
Ответить на тему

Текущее время: Сегодня 00:05

Часовой пояс: GMT + 4



Вы не можете начинать темы
Вы не можете отвечать на сообщения
Вы не можете редактировать свои сообщения
Вы не можете удалять свои сообщения
Вы не можете голосовать в опросах
Вы не можете прикреплять файлы к сообщениям
Вы не можете скачивать файлы

▼ Вниз