ML
     
  Уважаемый Гость!
Вы можете поддержать проект и зарегистрироваться у наших партнеров - онлайн-стратегия MyLands. При регистрации в игре Вы получите код, который сможете активировать после регистрации на pirat.ca и получить 1000 дублонов.

Ваш код:
0fcd44bd35319f69313aa6e53b31c51cbff1c942
 
     

Приключения мышонка / Rodencia y el Diente de la Princesa (Давид Бисбано / David Bisbano) [2013 г., мультфильм, семейный, HDRip] Dub [Лицензия]

Ответить на тему
 
Автор
Сообщение

Пост 14-Дек-2013 22:19

[Q] 

Gweg

-Приключения мышонка / Rodencia y el Diente de la Princesa-- Производство: Перу, Аргентина
Режиссер: Давид Бисбано / David Bisbano
Жанр: мультфильм, семейный
Год выпуска: 2013 г.
Продолжительность: 01:27:42
Мировая премьера: 11 октября 2012
Российская премьера: 14 ноября 2013, «Top Film Distribution»
Перевод: Профессиональный (полное дублирование) [Лицензия]
Роли озвучивали: Эрнан Браво, Наталия Росминати, Рикардо Эланис, Энрике Порсейана, Серджо Бермехо, Освальдо Салас, Гонсало Уртисбереа, Марсело Чиринос, Хосе Луис Пертикарини, Мария Елена Молина-Описание: Давным-давно, в густых и широких лесах стояло прекрасное королевство Роденсия — место, где обитали удивительные создания и могущественные волшебники. Приключение, которое произойдёт здесь, расскажет нам о любви между неуклюжим учеником мага маленьким мышонком Эдамом и красивой и уверенной мышкой Бри, которым придётся преодолеть много опасных препятствий, для того чтобы получить силу зубной феи и победить отряд крыс под командованием злого Ротекса, который вторгся в мирное мышиное царство. В таинственной глубине леса магия света и тьмы, любви и обиды столкнутся, а Эдам и Ротекс будут сражаться, и только один выйдет победителем.-

КиноПоиск
Качество видео: HDRip
Контейнер: AVI
Видео кодек: XviD
Аудио кодек: AC3
Видео: 720x320 (2.25:1), 23.976 fps, XviD build 50 ~1769 kbps avg, 0.32 bit/pixel
Аудио: 48 kHz, AC3 Dolby Digital, 3/2 (L,C,R,l,r) + LFE ch, ~448 kbps
Cубтитры: отсутствуют
Формат : AVI
Формат/Информация : Audio Video Interleave
Размер файла : 1,36 Гбайт
Продолжительность : 1 ч. 27 м.
Общий поток : 2227 Кбит/сек
Название фильма : Mishonok_2013_HDRip
Программа кодирования : VirtualDubMod 1.5.10.3 | www.virtualdub-fr.org || (build 2550/release)
Видео
Идентификатор : 0
Формат : MPEG-4 Visual
Профиль формата : Advanced [email protected]
Параметр BVOP формата : 1
Параметр QPel формата : Нет
Параметр GMC формата : Без точки перехода
Параметр матрицы формата : Default (H.263)
Идентификатор кодека : XVID
Идентификатор кодека/Подсказка : XviD
Продолжительность : 1 ч. 27 м.
Битрейт : 1770 Кбит/сек
Ширина : 720 пикселей
Высота : 320 пикселей
Соотношение сторон : 2,25:1
Частота кадров : 23,976 кадра/сек
Цветовое пространство : YUV
Субдискретизация насыщенности : 4:2:0
Битовая глубина : 8 бит
Тип развёртки : Прогрессивная
Метод сжатия : С потерями
Бит/(Пиксели*Кадры) : 0.320
Размер потока : 1,08 Гбайт (79%)
Библиотека кодирования : XviD 1.2.1 (UTC 2008-12-04)
Аудио
Идентификатор : 1
Формат : AC-3
Формат/Информация : Audio Coding 3
Расширение режима : CM (complete main)
Параметр Endianness формата : Big
Идентификатор кодека : 2000
Продолжительность : 1 ч. 27 м.
Вид битрейта : Постоянный
Битрейт : 448 Кбит/сек
Каналы : 6 каналов
Расположение каналов : Front: L C R, Side: L R, LFE
Частота : 48,0 КГц
Битовая глубина : 16 бит
Метод сжатия : С потерями
Размер потока : 281 Мбайт (20%)
Выравнивание : Разделение по промежуткам
Продолжительность промежутка : 42 мс. (1,00 видеокадр)
Время предзагрузки промежутка : 500 мс.
Download / Скачать

Хотите скачать бесплатно? Зарегистрируйтесь на сайте (ссылка на регистрацию). Pirat.ca - самый быстрый торрент трекер в рунете!

Как скачивать  ·   Что такое торрент  ·   Рейтинг и ограничения

Пост 15-Дек-2013 05:36 (спустя 7 часов)

Топик был перенесен из форума Мультфильмы (Трюм) в форум Новинки (HD|DVD|BD| TV|SAT|PDTV| - Rips)
erchine
 

femaxx

Корсар

Пост 15-Дек-2013 17:41 (спустя 19 часов)

[Q] 

Думаю детишкам понравится
[Профиль]  [ЛС] 

zvyagin_da

Пост 15-Дек-2013 23:58 (спустя 6 часов)

[Q] 

Скачал сын посмотрит
[Профиль]  [ЛС] 

Alex Yz

Гроза морей

Пост 16-Дек-2013 00:06 (спустя 7 минут)

[Q] 

Скачал. Посмотрим с детьми. Спасибо!!!
[Профиль]  [ЛС] 

Jek@

Легенда

Пост 16-Дек-2013 02:29 (спустя 2 часа 23 минуты)

[Q] 

Спасибо!!! .
[Профиль]  [ЛС] 

Jikler

Лоцман

Пост 23-Янв-2014 17:07 (спустя 1 месяц 7 дней)

[Q] 

Автору респект!!! Мне понравилось
[Профиль]  [ЛС] 

vassal13

Штурман

Пост 12-Мар-2014 23:14 (спустя 1 месяц 20 дней)

[Q] 

Скачаем, посмотрим. Думаю детям понравится.
[Профиль]  [ЛС] 
Показать сообщения:    
Ответить на тему

Текущее время: Сегодня 02:12

Часовой пояс: GMT + 4



Вы не можете начинать темы
Вы не можете отвечать на сообщения
Вы не можете редактировать свои сообщения
Вы не можете удалять свои сообщения
Вы не можете голосовать в опросах
Вы не можете прикреплять файлы к сообщениям
Вы не можете скачивать файлы

▼ Вниз