ML
     
  Уважаемый Гость!
Вы можете поддержать проект и зарегистрироваться у наших партнеров - онлайн-стратегия MyLands. При регистрации в игре Вы получите код, который сможете активировать после регистрации на pirat.ca и получить 1000 дублонов.

Ваш код:
ea554e7ed3eacceeae87a8b30a9de3f086c18a84
 
     

Индюки: Назад в будущее / Free Birds (Джимми Хейуорд / Jimmy Hayward) [2013 г., мультфильм, комедия, BDRip] Dub [Лицензия] + Original (Eng) [internal release]

Ответить на тему
 
Автор
Сообщение

Пост 15-Дек-2013 15:21

[Q] 

aleksey99

--Индюки: Назад в будущее / Free Birds--«Величайшее путешествие всех времён»- -Производство: США, Reel FX Creative Studios, Relativity Media
Год выпуска: 2013 г.
Жанр: мультфильм, комедия
Продолжительность: 01:31:02--Мировая премьера: 26 сентября 2013
Российская премьера: 31 октября 2013, «Парадиз»
Релиз на DVD: 24 декабря 2013, «Парадиз / Активижен»
Релиз на Blu-Ray: 24 декабря 2013, «Парадиз / Активижен»--Перевод: Профессиональный (полное дублирование) [Лицензия]
Оригинальный аудиопоток: английский--Режиссер: Джимми Хейуорд / Jimmy Hayward--В ролях: Оуэн Уилсон, Вуди Харрельсон, Эми Полер, Джордж Такей, Колм Мини, Кит Дэвид, Дэн Фоглер, Джимми Хейуорд, Кейтлин Мехер, Карлос Аласраки--Описание: Индюки Реджи и Джейк находят машину времени, чтобы отправиться на триста лет назад, дабы раз и навсегда вычеркнуть индейку из праздничного меню.-- --Качество видео: BDRip
Контейнер: AVI
Видео кодек: XviD
Аудио кодек: AC3
Видео: 720x384 (1.88:1), 23.976 fps, XviD build 50 ~1784 kbps avg, 0.27 bit/pixel
Аудио 1: 48 kHz, AC3 Dolby Digital, 3/2 (L,C,R,l,r) + LFE ch, ~320 kbps Rus
Аудио 2: 44.1 kHz, AC3 Dolby Digital, 2/0 (L,R) ch, ~192 kbps Eng
Cубтитры: Отсутствуют
Общее
Полное имя : D:\999\Induki.2013.D.BDRip_[pirat.ca].avi
Формат : AVI
Формат/Информация : Audio Video Interleave
Размер файла : 1,47 Гбайт
Продолжительность : 1 ч. 31 м.
Общий поток : 2310 Кбит/сек
Программа кодирования : VirtualDubMod 1.5.10.3 | www.virtualdub-fr.org || (build 2550/release)
Библиотека кодирования : VirtualDubMod build 2550/release
Видео
Идентификатор : 0
Формат : MPEG-4 Visual
Профиль формата : Advanced [email protected]
Параметр BVOP формата : 2
Параметр QPel формата : Нет
Параметр GMC формата : Без точки перехода
Параметр матрицы формата : Default (MPEG)
Идентификатор кодека : XVID
Идентификатор кодека/Подсказка : XviD
Продолжительность : 1 ч. 31 м.
Битрейт : 1784 Кбит/сек
Ширина : 720 пикселей
Высота : 384 пикселя
Соотношение сторон : 1,85:1
Частота кадров : 23,976 кадра/сек
Цветовое пространство : YUV
Субдискретизация насыщенности : 4:2:0
Битовая глубина : 8 бит
Тип развёртки : Прогрессивная
Метод сжатия : С потерями
Бит/(Пиксели*Кадры) : 0.269
Размер потока : 1,13 Гбайт (77%)
Библиотека кодирования : XviD 1.2.1 (UTC 2008-12-04)
Аудио #1
Идентификатор : 1
Формат : AC-3
Формат/Информация : Audio Coding 3
Расширение режима : CM (complete main)
Параметр Endianness формата : Big
Идентификатор кодека : 2000
Продолжительность : 1 ч. 31 м.
Вид битрейта : Постоянный
Битрейт : 320 Кбит/сек
Каналы : 6 каналов
Расположение каналов : Front: L C R, Side: L R, LFE
Частота : 48,0 КГц
Битовая глубина : 16 бит
Метод сжатия : С потерями
Размер потока : 208 Мбайт (14%)
Выравнивание : Разделение по промежуткам
Продолжительность промежутка : 42 мс. (1,00 видеокадр)
Время предзагрузки промежутка : 500 мс.
Аудио #2
Идентификатор : 2
Формат : AC-3
Формат/Информация : Audio Coding 3
Расширение режима : CM (complete main)
Параметр Endianness формата : Big
Идентификатор кодека : 2000
Продолжительность : 1 ч. 31 м.
Вид битрейта : Постоянный
Битрейт : 192 Кбит/сек
Каналы : 2 канала
Расположение каналов : Front: L R
Частота : 44,1 КГц
Битовая глубина : 16 бит
Метод сжатия : С потерями
Размер потока : 125 Мбайт (8%)
Выравнивание : Разделение по промежуткам
Продолжительность промежутка : 42 мс. (1,00 видеокадр)
Время предзагрузки промежутка : 500 мс.
Трейлер
Download / Скачать

Хотите скачать бесплатно? Зарегистрируйтесь на сайте (ссылка на регистрацию). Pirat.ca - самый быстрый торрент трекер в рунете!

Как скачивать  ·   Что такое торрент  ·   Рейтинг и ограничения

Пост 15-Дек-2013 15:30 (спустя 8 минут)

Топик был перенесен из форума Мультфильмы (Трюм) в форум Новинки (HD|DVD|BD| TV|SAT|PDTV| - Rips)
erchine
 

femaxx

Корсар

Пост 15-Дек-2013 16:33 (спустя 1 час 11 минут)

[Q] 

Хороший добрый мульт
[Профиль]  [ЛС] 

metafizik

Морской Волк

85

Пост 13-Янв-2014 12:33 (спустя 28 дней)

[Q] 

спасибо, будем посмотреть
[Профиль]  [ЛС] 

[email protected]l.com

Лоцман

Пост 14-Янв-2014 03:01 (спустя 14 часов)

[Q] 

Мульт веселый. Свое время оправдывает
[Профиль]  [ЛС] 

Selim

Корсар

Пост 14-Янв-2014 11:37 (спустя 8 часов)

[Q] 

Прикольный мультик.
[Профиль]  [ЛС] 

tfrtr1988

Канонир

Пост 15-Янв-2014 03:21 (спустя 15 часов)

[Q] 

Класный мультик.Припомнил мне прикол с птичками от Пиксара.
[Профиль]  [ЛС] 

congress

Морской Волк

75

Пост 25-Янв-2014 01:00 (спустя 9 дней)

[Q] 

мульт так себе...
мне кажется или Кураж озвучивает главных героев?)
автору спасибо
Лови бочку

_________________
Котлеты – самые лучшие пирожки. У них и внутри мясо, и вместо теста – тоже мясо.
[Профиль]  [ЛС] 

Феонолини

Шкипер

Пост 18-Апр-2014 15:58 (спустя 2 месяца 24 дня)

[Q] 

Смешной мультик)

_________________
Где есть свет, всегда есть тень. Под светом счастья... Всегда есть тень отчаяния ...
Хун Мин
[Профиль]  [ЛС] 

xlSior

Шкипер

Пост 28-Июн-2014 20:23 (спустя 2 месяца 10 дней)

[Q] 

спс - возьмем в дорогу
Спасибо!!!
[Профиль]  [ЛС] 
Показать сообщения:    
Ответить на тему

Текущее время: Сегодня 12:13

Часовой пояс: GMT + 4



Вы не можете начинать темы
Вы не можете отвечать на сообщения
Вы не можете редактировать свои сообщения
Вы не можете удалять свои сообщения
Вы не можете голосовать в опросах
Вы не можете прикреплять файлы к сообщениям
Вы не можете скачивать файлы

▼ Вниз