ML
     
  Уважаемый Гость!
Вы можете поддержать проект и зарегистрироваться у наших партнеров - онлайн-стратегия MyLands. При регистрации в игре Вы получите код, который сможете активировать после регистрации на pirat.ca и получить 1000 дублонов.

Ваш код:
cc3be08b7507661c03e0a2f582d0da3a659ea55a
 
     

Индюки: Назад в будущее / Free Birds (Джимми Хейуорд / Jimmy Hayward) [2013 г., мультфильм, комедия, BDRip-AVC] Dub [Лицензия][internal release]

Ответить на тему
 
Автор
Сообщение

Пост 16-Дек-2013 14:36

[Q] 

aleksey99

--Индюки: Назад в будущее / Free Birds--«Величайшее путешествие всех времён»- -Производство: США, Reel FX Creative Studios, Relativity Media
Год выпуска: 2013 г.
Жанр: мультфильм, комедия
Продолжительность: 01:31:02--Мировая премьера: 26 сентября 2013
Российская премьера: 31 октября 2013, «Парадиз»
Релиз на DVD: 24 декабря 2013, «Парадиз / Активижен»
Релиз на Blu-Ray: 24 декабря 2013, «Парадиз / Активижен»--Перевод: Профессиональный (полное дублирование) [Лицензия]--Режиссер: Джимми Хейуорд / Jimmy Hayward--В ролях: Оуэн Уилсон, Вуди Харрельсон, Эми Полер, Джордж Такей, Колм Мини, Кит Дэвид, Дэн Фоглер, Джимми Хейуорд, Кейтлин Мехер, Карлос Аласраки--Описание: Индюки Реджи и Джейк находят машину времени, чтобы отправиться на триста лет назад, дабы раз и навсегда вычеркнуть индейку из праздничного меню.-- --Качество видео: BDRip-AVC
Контейнер: MKV
Видео кодек: H.264
Аудио кодек: AC3
Видео: AVC at 1835 Кбит/сек, 1008x544 at 23,976 fps
Аудио: 48 kHz, AC3 Dolby Digital, 3/2 (L,C,R,l,r) + LFE ch, ~448 kbps
Cубтитры: Отсутствуют
Общее
Уникальный идентификатор : 220312743712557222501342830136725487423 (0xA5BEB0E6FD2F47A08D46EC9B58463F3F)
Полное имя : H:\P9\Indjuki.Nazad.v.budushhee.2013.D.BDRip.AVC.mkv
Формат : Matroska
Версия формата : Version 2
Размер файла : 1,45 Гбайт
Продолжительность : 1 ч. 31 м.
Общий поток : 2283 Кбит/сек
Название фильма : http://pirat.ca
Дата кодирования : UTC 2013-12-16 11:55:16
Программа кодирования : mkvmerge v5.8.0 ('No Sleep / Pillow') built on Sep 2 2012 15:37:04
Библиотека кодирования : libebml v1.2.3 + libmatroska v1.3.0
Видео
Идентификатор : 1
Формат : AVC
Формат/Информация : Advanced Video Codec
Профиль формата : [email protected]
Параметр CABAC формата : Да
Параметр ReFrames формата : 7 кадров
Режим смешивания : Header stripping
Идентификатор кодека : V_MPEG4/ISO/AVC
Продолжительность : 1 ч. 31 м.
Битрейт : 1835 Кбит/сек
Ширина : 1008 пикселей
Высота : 544 пикселя
Соотношение сторон : 1,85:1
Режим частоты кадров : Постоянный
Частота кадров : 23,976 кадра/сек
Цветовое пространство : YUV
Субдискретизация насыщенности : 4:2:0
Битовая глубина : 8 бит
Тип развёртки : Прогрессивная
Бит/(Пиксели*Кадры) : 0.140
Размер потока : 1,14 Гбайт (78%)
Библиотека кодирования : x264 core 119 r2106 07efeb4
Настройки программы : cabac=1 / ref=7 / deblock=1:-1:-1 / analyse=0x3:0x133 / me=umh / subme=10 / psy=1 / psy_rd=1.00:0.15 / mixed_ref=0 / me_range=24 / chroma_me=1 / trellis=2 / 8x8dct=1 / cqm=0 / deadzone=21,11 / fast_pskip=0 / chroma_qp_offset=-3 / threads=6 / sliced_threads=0 / nr=0 / decimate=1 / interlaced=0 / bluray_compat=0 / constrained_intra=0 / bframes=6 / b_pyramid=2 / b_adapt=2 / b_bias=0 / direct=3 / weightb=1 / open_gop=0 / weightp=2 / keyint=250 / keyint_min=23 / scenecut=40 / intra_refresh=0 / rc_lookahead=50 / rc=2pass / mbtree=1 / bitrate=1835 / ratetol=1.0 / qcomp=0.60 / qpmin=0 / qpmax=69 / qpstep=4 / cplxblur=20.0 / qblur=0.5 / ip_ratio=1.40 / aq=1:1.00
Default : Да
Forced : Нет
Аудио
Идентификатор : 2
Формат : AC-3
Формат/Информация : Audio Coding 3
Расширение режима : CM (complete main)
Параметр Endianness формата : Big
Режим смешивания : Header stripping
Идентификатор кодека : A_AC3
Продолжительность : 1 ч. 31 м.
Вид битрейта : Постоянный
Битрейт : 448 Кбит/сек
Каналы : 6 каналов
Расположение каналов : Front: L C R, Side: L R, LFE
Частота : 48,0 КГц
Битовая глубина : 16 бит
Метод сжатия : С потерями
Размер потока : 292 Мбайт (20%)
Default : Да
Forced : Нет
Трейлер
Download / Скачать

Хотите скачать бесплатно? Зарегистрируйтесь на сайте (ссылка на регистрацию). Pirat.ca - самый быстрый торрент трекер в рунете!

Как скачивать  ·   Что такое торрент  ·   Рейтинг и ограничения

Пост 16-Дек-2013 16:45 (спустя 2 часа 8 минут)

Топик был перенесен из форума Мультфильмы (Трюм) в форум Новинки (HD|DVD|BD| TV|SAT|PDTV| - Rips)
ara1205
 

DrDEVIL666

Штурман

Пост 16-Дек-2013 17:36 (спустя 2 часа 59 минут)

[Q] 

Заценим! ПСБ за раздачу
[Профиль]  [ЛС] 

srg078rus

Корсар

97

Пост 16-Дек-2013 22:09 (спустя 4 часа)

[Q] 

Лови бочку

_________________
[Профиль]  [ЛС] 

sevensv

Легенда

2598

Пост 17-Дек-2013 20:15 (спустя 22 часа)

[Q] 

Супер! Лови бочку Интересный мультик!
[Профиль]  [ЛС] 

Gfr

Штурман

Пост 30-Дек-2013 02:24 (спустя 12 дней)

[Q] 

Одобрямс!
один раз посмотреть можно.

_________________
Мятная медуза - магазинчик милых вещей ручной работы.
http://mintjellyfish.com.ua
[Профиль]  [ЛС] 

KoSkud

Флибустьер

Пост 30-Дек-2013 11:02 (спустя 8 часов)

[Q] 

современная мультипликация похоже развивается по принципу страшной сказки bu не рискнул такое своему ребёнку (4 года) показать,пусть лучше Ну,погоди смотрит

_________________
Учись-играя,играя-учись
[Профиль]  [ЛС] 

kolegy1

Морской Волк

Пост 09-Янв-2014 12:11 (спустя 10 дней)

[Q] 

468969современная мультипликация похоже развивается по принципу страшной сказки bu не рискнул такое своему ребёнку (4 года) показать,пусть лучше Ну,погоди смотрит
Мультик не плохой, а "Ну погоди" - жесток!

_________________
Я знаю только то, что ничего не знаю, но другие не знают и этого.
[Профиль]  [ЛС] 

ScorpioKZ

Шкипер

Пост 09-Янв-2014 14:07 (спустя 1 час 56 минут)

[Q] 

скучноватый мульт, да и дочке не понравился
[Профиль]  [ЛС] 

networmcast

Пост 10-Янв-2014 19:09 (спустя 1 день 5 часов)

[Q] 

Любопытно, посмотрим-с..
[Профиль]  [ЛС] 

k_2

Шкипер

Пост 12-Янв-2014 20:36 (спустя 2 дня 1 час)

[Q] 

Немного слабоват мультфильм, но смотреть можно. Раздающему респект!
[Профиль]  [ЛС] 

networmcast

Пост 14-Янв-2014 16:13 (спустя 1 день 19 часов)

[Q] 

Посмотрел-с.. Ну, да, слабоват, но зато в переводе куража-бомбейя и в озвучке диджееев юмор-фм! :)
[Профиль]  [ЛС] 
Показать сообщения:    
Ответить на тему

Текущее время: Сегодня 05:09

Часовой пояс: GMT + 4



Вы не можете начинать темы
Вы не можете отвечать на сообщения
Вы не можете редактировать свои сообщения
Вы не можете удалять свои сообщения
Вы не можете голосовать в опросах
Вы не можете прикреплять файлы к сообщениям
Вы не можете скачивать файлы

▼ Вниз