ML
     
  Уважаемый Гость!
Вы можете поддержать проект и зарегистрироваться у наших партнеров - онлайн-стратегия MyLands. При регистрации в игре Вы получите код, который сможете активировать после регистрации на pirat.ca и получить 1000 дублонов.

Ваш код:
8dcb839cf1b47e56d6dc42d17f26b3e4822e9aee
 
     

Бэтмен и Супермен / The Batman/Superman Movie (Тосихико Масуда / Toshihiko Masuda) [1998 г., Мультфильм, Фантастика, Фэнтези, Боевик, Приключения, Семейный, DVDRip] (Dub)

Ответить на тему
 
Автор
Сообщение

Пост 04-Янв-2012 10:00

[Q] 

Ksandr

Флибустьер

Бэтмен и Супермен / The Batman/Superman Movie
Год выпуска: 1998
Мировая премьера: 18 августа 1998
Дата выхода DVD: 7 апреля 2011
Производство: США
Жанр: Мультфильм, Фантастика, Фэнтези, Боевик, Приключения, Семейный
Продолжительность: 00:58:25
Перевод: Профессиональный (полное дублирование)
Режиссер: Тосихико Масуда / Toshihiko Masuda
В ролях: Тим Дейли, Дана Дилэйни, Кевин Конрой, Клэнси Браун, Марк Хэмилл, Арлин Соркин, Лиза Эдельштейн, Боб Хатингс, Ефрем Цимбалист мл., Джозеф Болонья
Описание: Когда Джокер добивается помощи Лекса Лютора в воплощении нового коварного замысла, только ценой общих усилий Бэтмена и Супергероя можно спасти город Метрополис. Смогут ли Человек Из Стали и Крестоносец отложить свои разногласия и разрушить коварные планы злых союзников?
Источник/Качество: DVDRip
Формат: AVI
Видео кодек: XviD
Аудио кодек: AC3
Видео: 704x512, ~1453 kbps, 25,000 fps
Аудио: 2ch, 192 kbps, 48,0 КГц
Общее
Полное имя : The Batman.Superman Movie[pirat.ca].avi
Формат : AVI
Формат/Информация : Audio Video Interleave
Размер файла : 691 Мбайт
Продолжительность : 58 м.
Общий поток : 1655 Кбит/сек
Программа кодирования : VirtualDubModRus 1.5.10.2 (build 2542/release)
Библиотека кодирования : VirtualDubMod build 2542/release
Видео
Идентификатор : 0
Формат : MPEG-4 Visual
Профиль формата : Advanced [email protected]
Параметр BVOP формата : 1
Параметр QPel формата : Нет
Параметр GMC формата : Без точки перехода
Параметр матрицы формата : Default (MPEG)
Режим смешивания : Сжатый битовый поток
Идентификатор кодека : XVID
Идентификатор кодека/Подсказка : XviD
Продолжительность : 58 м.
Битрейт : 1453 Кбит/сек
Ширина : 704 пикселя
Высота : 512 пикселей
Соотношение сторон : 1,375
Частота кадров : 25,000 кадров/сек
Цветовое пространство : YUV
Субдискретизация насыщенности : 4:2:0
Битовая глубина : 8 бит
Тип развёртки : Прогрессивная
Метод сжатия : С потерями
Бит/(Пиксели*Кадры) : 0.161
Размер потока : 607 Мбайт (88%)
Библиотека кодирования : XviD 1.2.0.dev47 (UTC 2006-11-01)
Аудио
Идентификатор : 1
Формат : AC-3
Формат/Информация : Audio Coding 3
Расширение режима : CM (complete main)
Идентификатор кодека : 2000
Продолжительность : 58 м.
Вид битрейта : Постоянный
Битрейт : 192 Кбит/сек
Каналы : 2 канала
Расположение каналов : Front: L R
Частота : 48,0 КГц
Битовая глубина : 16 бит
Метод сжатия : С потерями
Размер потока : 80,2 Мбайт (12%)
Выравнивание : Разделение по промежуткам
Продолжительность промежутка : 40 мс. (1,00 видеокадр)
Время предзагрузки промежутка : 500 мс.


Релиз подготовлен:
Download / Скачать

Хотите скачать бесплатно? Зарегистрируйтесь на сайте (ссылка на регистрацию). Pirat.ca - самый быстрый торрент трекер в рунете!

Как скачивать  ·   Что такое торрент  ·   Рейтинг и ограничения

Пост 04-Янв-2012 10:48 (спустя 47 минут)

Топик был перенесен из форума Мультипликация в форум Зарубежные полнометражные мультфильмы

Sirota
 
Показать сообщения:    
Ответить на тему

Текущее время: Сегодня 04:18

Часовой пояс: GMT + 4



Вы не можете начинать темы
Вы не можете отвечать на сообщения
Вы не можете редактировать свои сообщения
Вы не можете удалять свои сообщения
Вы не можете голосовать в опросах
Вы не можете прикреплять файлы к сообщениям
Вы не можете скачивать файлы

▼ Вниз