ML
     
  Уважаемый Гость!
Вы можете поддержать проект и зарегистрироваться у наших партнеров - онлайн-стратегия MyLands. При регистрации в игре Вы получите код, который сможете активировать после регистрации на pirat.ca и получить 1000 дублонов.

Ваш код:
a6d1ef7ff63e237add5a4c8b21d8aa937c5e9b4b
 
     

Три кабальеро / The Three Caballeros (Норман Фергюсон /Norman Ferguson) [1944 г.] (Детский анимационный, музыкальный) [DVDRip]

Ответить на тему
 
Автор
Сообщение

Пост 04-Янв-2012 12:56

[Q] 

Андря

Три кабальеро / The Three Caballeros
Год выпуска: 1944
Мировая премьера: 21 декабря 1944
Производство: «Уолт Дисней Компани»
Жанр: Детский анимационный, музыкальный
Продолжительность: 01:11:38
Перевод: Профессиональный (многоголосый, закадровый)
Оригинальный аудиопоток: Английский
Режиссер: Норман Фергюсон /Norman Ferguson
Описание: В свой день рождения любопытный утенок Дональд Дак получил от друзей из южной Америки огромную посылку. В яркой коробке оказался кинопроектор с веселым мультфильмом о животном мире далекого континента и волшебная книга, в которой живут смешные персонажи из сказок латинской Америки. Главный герой - попугай Джо Кариока, увлек Дональда в головокружительное путешествие по страницам с разноцветными картинами. Новые друзья повстречали задиристого петушка Панчито, который рассказал много чудесных историй о своей родине и её обычаях и предложил гостям создать эстрадное трио "Кабальерос". За время своего волшебного круиза путешественники узнали много нового и встретили настоящих друзей, с которыми всегда хочется петь и танцевать под мелодию о трех неунывающих кабальеро...
Доп. информация: Великий Уолт Дисней создал этот мультфильм, вдохновленный путешествием по странам Латинской Америки. Мультипликационный урок географии сразу понравился детям и взрослым, а новые рисованные персонажи так полюбились, что в последствии стали героями комиксов, детских книг и, конечно же, следующих мультфильмов студии Диснея.
Зрелищный и очень забавный фильм Уолта Диснея, сочетающий в себе мультипликацию с живыми актерами, перемежающийся музыкальными и танцевальными номерами с чечеткой.
Сделан очень ярко и весело. Источник/Качество: DVDRip
Формат: AVI
Видео кодек: DivX
Аудио кодек: MP3
Видео: DivX, 704 x 512, 25 fps, 1279 kbps
Аудио: MPEG-1 Layer 3, Stereo, 2 channels, 22 Hz, 62 kbps, 16 bits
Format : AVI
Format/Info : Audio Video Interleave
File size : 694 MiB
Duration : 1h 11mn
Overall bit rate : 1 354 Kbps
Video
ID : 0
Format : MPEG-4 Visual
Format settings, BVOP : Yes
Format settings, QPel : No
Format settings, GMC : No warppoints
Format settings, Matrix : Default (H.263)
Muxing mode : Packed bitstream
Codec ID : DX50
Codec ID/Hint : DivX 5
Duration : 1h 11mn
Bit rate : 1 281 Kbps
Width : 704 pixels
Height : 512 pixels
Display aspect ratio : 1.375
Frame rate : 25.000 fps
Resolution : 8 bits
Colorimetry : 4:2:0
Scan type : Progressive
Bits/(Pixel*Frame) : 0.142
Stream size : 656 MiB (95%)
Writing library : DivX 5.1.1 (Maupiti) (UTC 2003-11-19)
Audio
ID : 1
Format : MPEG Audio
Format version : Version 2
Format profile : Layer 3
Codec ID : 55
Codec ID/Hint : MP3
Duration : 1h 11mn
Bit rate mode : Constant
Bit rate : 64.0 Kbps
Channel(s) : 2 channels
Sampling rate : 22.05 KHz
Stream size : 32.8 MiB (5%)
Alignment : Split accross interleaves
Interleave, duration : 40 ms (1.00 video frame)
Interleave, preload duration : 500 ms
Writing library : LAME3.92




Оскар, 1946 год
Две номинации на "ОСКАР":
-Лучший звук
-Лучший саундтрек для музыкальных картин
Download / Скачать

Хотите скачать бесплатно? Зарегистрируйтесь на сайте (ссылка на регистрацию). Pirat.ca - самый быстрый торрент трекер в рунете!

Как скачивать  ·   Что такое торрент  ·   Рейтинг и ограничения



Последний раз редактировалось: Андря (2012-01-07 13:42), всего редактировалось 1 раз

Пост 04-Янв-2012 15:16 (спустя 2 часа 19 минут)

Топик был перенесен из форума Мультипликация в форум Зарубежные полнометражные мультфильмы

oliks
 
Показать сообщения:    
Ответить на тему

Текущее время: Сегодня 13:37

Часовой пояс: GMT + 4



Вы не можете начинать темы
Вы не можете отвечать на сообщения
Вы не можете редактировать свои сообщения
Вы не можете удалять свои сообщения
Вы не можете голосовать в опросах
Вы не можете прикреплять файлы к сообщениям
Вы не можете скачивать файлы

▼ Вниз