ML
     
  Уважаемый Гость!
Вы можете поддержать проект и зарегистрироваться у наших партнеров - онлайн-стратегия MyLands. При регистрации в игре Вы получите код, который сможете активировать после регистрации на pirat.ca и получить 1000 дублонов.

Ваш код:
0ea1bf889af42fca5f67d0a391efb3400850ad7c
 
     

Школа Монстров: 13 желаний / Monster High: 13 Wishes (Стив Сакс / Steve Sacks) [2013 г., комедия, приключения, BDRip-AVC] Dub Sub Eng + Original (Eng)

Ответить на тему
 
Автор
Сообщение

Пост 21-Дек-2013 11:24

[Q] 

aiden57

Гроза морей

-Школа Монстров: 13 желаний / Monster High: 13 Wishes-- Производство: США
Режиссер: Стив Сакс / Steve Sacks
Жанр: комедия, приключения
Год выпуска: 2013 г.
Продолжительность: 01:13:21
Мировая премьера: 3 октября 2013
Перевод: Профессиональный (полное дублирование)
Оригинальный аудиопоток: английский
Роли озвучивали: Лора Бэйли, Хэнк Бэнкс, Кэм Кларк, Эндрю Дункан, Эрин Фицджералд, Ди Ди Грин, Кейт Хиггинс, Джули Маддалена, Марк Меркадо, Оду Паден-Описание: В «Школе монстров» начался новый учебный год, и младшая сестричка Клодин Вулф, Хоулин, надеется стать самой КЛЫКассной девчонкой в школе. Ее мечта о популярности оказывается гораздо реальнее, чем она думала, после встречи с джинном по имени Джиджи, который дает ей загадать не 3, а целых 13 желаний!
Но вскоре героини понимают, что с желаниями следует быть осторожнее, ведь каждое имеет не только плюсы, но и минусы! А тем временем жизнь в Школе монстров переворачивается с ног на голову! Вместе с Фрэнки Штейн, Клодин Вулф, Дракулаурой и их ужасно классными подружками вас ждет настоящая магическая феерия в духе Школы монстров… и фейерверк убойных приемчиков на каждом шагу!-Сэмпл IMDB КиноПоиск
Качество видео: BDRip-AVC
Контейнер: MKV
Видео кодек: H.264
Аудио кодек: AC3
Видео: AVC, 2100 Kbps, 1024x576 (16:9), 23.976 fps
Аудио: AC3, 6 ch, 384 kbps, 48.0 KHz, 16 bits, Русский
Аудио #2: AC3, 6 ch, 448 kbps, 48.0 KHz, 16 bits, Английский
Cубтитры: английские
Формат субтитров: softsub (SRT)
General
Unique ID : 225412905341012102720103965189182262570 (0xA994F248E49808E5A63D40703B370D2A)
Complete name : Shkola.monstrov.13.zhelaniy.2013.mkv
Format : Matroska
Format version : Version 4 / Version 2
File size : 1.51 GiB
Duration : 1h 13mn
Overall bit rate : 2 942 Kbps
Encoded date : UTC 2013-10-12 14:05:05
Writing application : mkvmerge v6.1.0 ('Old Devil') built on Mar 2 2013 14:32:37
Writing library : libebml v1.3.0 + libmatroska v1.4.0
Video
ID : 1
Format : AVC
Format/Info : Advanced Video Codec
Format profile : [email protected]
Format settings, CABAC : Yes
Format settings, ReFrames : 9 frames
Codec ID : V_MPEG4/ISO/AVC
Duration : 1h 13mn
Bit rate : 2 100 Kbps
Width : 1 024 pixels
Height : 576 pixels
Display aspect ratio : 16:9
Frame rate mode : Constant
Frame rate : 23.976 fps
Color space : YUV
Chroma subsampling : 4:2:0
Bit depth : 8 bits
Scan type : Progressive
Bits/(Pixel*Frame) : 0.148
Stream size : 1.05 GiB (70%)
Writing library : x264 core 130 r2273 b3065e6
Encoding settings : cabac=1 / ref=9 / deblock=1:-2:-2 / analyse=0x3:0x133 / me=umh / subme=11 / psy=1 / psy_rd=1.00:0.15 / mixed_ref=1 / me_range=48 / chroma_me=1 / trellis=2 / 8x8dct=1 / cqm=0 / deadzone=21,11 / fast_pskip=0 / chroma_qp_offset=-3 / threads=6 / lookahead_threads=1 / sliced_threads=0 / nr=0 / decimate=0 / interlaced=0 / bluray_compat=0 / constrained_intra=0 / bframes=7 / b_pyramid=2 / b_adapt=2 / b_bias=0 / direct=3 / weightb=1 / open_gop=0 / weightp=2 / keyint=240 / keyint_min=23 / scenecut=40 / intra_refresh=0 / rc=2pass / mbtree=0 / bitrate=2100 / ratetol=1.0 / qcomp=0.60 / qpmin=0 / qpmax=69 / qpstep=4 / cplxblur=20.0 / qblur=0.5 / ip_ratio=1.40 / pb_ratio=1.30 / aq=1:1.00
Default : Yes
Forced : No
Audio #1
ID : 2
Format : AC-3
Format/Info : Audio Coding 3
Mode extension : CM (complete main)
Format settings, Endianness : Big
Codec ID : A_AC3
Duration : 1h 13mn
Bit rate mode : Constant
Bit rate : 384 Kbps
Channel count : 6 channels
Channel positions : Front: L C R, Side: L R, LFE
Sampling rate : 48.0 KHz
Bit depth : 16 bits
Compression mode : Lossy
Stream size : 201 MiB (13%)
Language : Russian
Default : Yes
Forced : No
Audio #2
ID : 3
Format : AC-3
Format/Info : Audio Coding 3
Mode extension : CM (complete main)
Format settings, Endianness : Big
Codec ID : A_AC3
Duration : 1h 13mn
Bit rate mode : Constant
Bit rate : 448 Kbps
Channel count : 6 channels
Channel positions : Front: L C R, Side: L R, LFE
Sampling rate : 48.0 KHz
Bit depth : 16 bits
Compression mode : Lossy
Stream size : 235 MiB (15%)
Default : No
Forced : No
Text
ID : 4
Format : UTF-8
Codec ID : S_TEXT/UTF8
Codec ID/Info : UTF-8 Plain Text
Default : No
Forced : No
Menu
00:00:00.000 : :Chapter 01
00:04:41.489 : :Chapter 02
00:10:11.402 : :Chapter 03
00:16:30.447 : :Chapter 04
00:24:18.915 : :Chapter 05
00:31:35.476 : :Chapter 06
00:36:55.338 : :Chapter 07
00:43:12.214 : :Chapter 08
00:49:40.936 : :Chapter 09
00:55:03.508 : :Chapter 10
01:03:53.162 : :Chapter 11
01:12:34.725 : :Chapter 12
01:13:21.188 : :Chapter 13
Download / Скачать

Хотите скачать бесплатно? Зарегистрируйтесь на сайте (ссылка на регистрацию). Pirat.ca - самый быстрый торрент трекер в рунете!

Как скачивать  ·   Что такое торрент  ·   Рейтинг и ограничения

Пост 21-Дек-2013 15:45 (спустя 4 часа)

Топик был перенесен из форума Мультфильмы (Трюм) в форум Новинки (HD|DVD|BD| TV|SAT|PDTV| - Rips)
ara1205
 

Варон

Корсар

Пост 21-Дек-2013 16:24 (спустя 5 часов)

[Q] 

тема барби и пони маленьких девочек уже не прёт видимо bm
[Профиль]  [ЛС] 

polozm

Легенда

Пост 23-Дек-2013 13:05 (спустя 1 день 20 часов)

[Q] 

465313тема барби и пони маленьких девочек уже не прёт видимо bm
((((:а это те популярные страшненькие куклы которыми сейчас дети бредят или другое?

_________________
mac mini -2.0 GHz Intel Core i7/ 8 GB DDR3. /Intel HD 3000(512mb)OS X 10.9 Mavericks
[Профиль]  [ЛС] 

f-serega

Штурман

Пост 23-Дек-2013 20:19 (спустя 7 часов)

[Q] 

466184
465313тема барби и пони маленьких девочек уже не прёт видимо bm
((((:а это те популярные страшненькие куклы которыми сейчас дети бредят или другое?
они самые. у меня дочка на новый год такую просит.... я как на цены глянул и офигел.... из золота их что-ли делают?
[Профиль]  [ЛС] 

polozm

Легенда

Пост 26-Дек-2013 10:22 (спустя 2 дня 14 часов)

[Q] 

466337
466184
465313тема барби и пони маленьких девочек уже не прёт видимо bm
((((:а это те популярные страшненькие куклы которыми сейчас дети бредят или другое?
они самые. у меня дочка на новый год такую просит.... я как на цены глянул и офигел.... из золота их что-ли делают?
Моя тоже плавно подъезжает с этими куклами :) я вот услышал ,что у них в темноте еще и глаза светятся вроде и теперь думаю обойдемся мы без этих чудищ

_________________
mac mini -2.0 GHz Intel Core i7/ 8 GB DDR3. /Intel HD 3000(512mb)OS X 10.9 Mavericks
[Профиль]  [ЛС] 

Варон

Корсар

Пост 09-Янв-2014 02:29 (спустя 13 дней)

[Q] 

главное мульт им этот не показывайте, иначе не открутитесь от покупки bj
[Профиль]  [ЛС] 

kuzhavaka

Морской Волк

Пост 09-Янв-2014 07:35 (спустя 5 часов)

[Q] 

да уж. bl запущен новый баблосос.
[Профиль]  [ЛС] 

Rapid_83

Штурман

Пост 24-Дек-2014 11:50 (спустя 11 месяцев 15 дней)

[Q] 

Не понимаю интерес к таким мультикам, типа как в молодости "Битлджус" чтоле? Дочка просит, скачаю и с ней погляжу. Спасибо.
[Профиль]  [ЛС] 
Показать сообщения:    
Ответить на тему

Текущее время: Сегодня 00:33

Часовой пояс: GMT + 4



Вы не можете начинать темы
Вы не можете отвечать на сообщения
Вы не можете редактировать свои сообщения
Вы не можете удалять свои сообщения
Вы не можете голосовать в опросах
Вы не можете прикреплять файлы к сообщениям
Вы не можете скачивать файлы

▼ Вниз