ML
     
  Уважаемый Гость!
Вы можете поддержать проект и зарегистрироваться у наших партнеров - онлайн-стратегия MyLands. При регистрации в игре Вы получите код, который сможете активировать после регистрации на pirat.ca и получить 1000 дублонов.

Ваш код:
6f9ab67d502902cc72a06c406977ddb589b7f39d
 
     

Артур и его пропавший друг / Arthur's Missing Pal (Ивет Каплан / Yvette Kaplan) [2006 г., приключения, семейный, WEB-DL] VO

Ответить на тему
 
Автор
Сообщение

Пост 22-Дек-2013 18:45

[Q] 

bazalt

Лоцман

-Артур и его пропавший друг / Arthur's Missing Pal-- Производство: США
Режиссер: Ивет Каплан/Yvette Kaplan
Жанр: приключения, семейный
Год выпуска: 2006 г.
Продолжительность: 01:05
Мировая премьера: 22 августа 2006
Перевод: Профессиональный (одноголосый, закадровый)
Описание: У Артура есть друг – собака. Но однажды мальчик не обнаруживает любимое животное. Он подключает всех своих друзей к расследованию пропажи и поиску собаки. Вместе они, конечно же, добьются успеха и найдут пропажу, попав по пути в целую вереницу приключений.-IMDB КиноПоиск
Качество видео: WEB-DL
Контейнер: MPEG
Видео кодек: MPEG2
Аудио кодек: MPEG Audio
Видео: 968*542р, Variable, 25 fps 3572 Kbps
Аудио: 224 kbps, 2 ch, 44.1 kHz
Cубтитры: отсутствуют
так как пересматривался ребенком (2-3 года ей было, уже не помню точно) с инета многократно и регулярно, сфрапсил (на то время даже в торрентах не находил, да и сейчас вроде нема), вот дошли руки выложить на пиратку.
General
Complete name : artur[pirat.ca].mpg
Format : MPEG-PS
File size : 1.76 GiB
Duration : 1h 5mn
Overall bit rate mode : Variable
Overall bit rate : 3 873 Kbps
Writing library : (c) 1998-2008 Womble Multimedia, Inc. / MPEG Video Wizard (12/2008) / Apr 11 2009
Video
ID : 224 (0xE0)
Format : MPEG Video
Format version : Version 2
Format profile : [email protected]
Format settings, BVOP : Yes
Format settings, Matrix : Default
Format settings, GOP : M=3, N=12
Duration : 1h 5mn
Bit rate mode : Variable
Bit rate : 3 572 Kbps
Maximum bit rate : 15.0 Mbps
Width : 968 pixels
Height : 542 pixels
Display aspect ratio : 16:9
Frame rate : 25.000 fps
Color space : YUV
Chroma subsampling : 4:2:0
Bit depth : 8 bits
Scan type : Progressive
Scan order : Bottom Field First
Compression mode : Lossy
Bits/(Pixel*Frame) : 0.272
Stream size : 1.62 GiB (92%)
Writing library : (c) 1998-2008 Womble Multimedia, Inc. / MPEG Video Wizard (12/2008) / Apr 11 2009
Audio
ID : 192 (0xC0)
Format : MPEG Audio
Format version : Version 1
Format profile : Layer 2
Duration : 1h 5mn
Bit rate mode : Constant
Bit rate : 224 Kbps
Channel(s) : 2 channels
Sampling rate : 44.1 KHz
Compression mode : Lossy
Delay relative to video : -80ms
Stream size : 104 MiB (6%)
Menu
вообщем сделан фрапсом с какого-то сайта. неточности в описании непреднамеренны.
Download / Скачать

Хотите скачать бесплатно? Зарегистрируйтесь на сайте (ссылка на регистрацию). Pirat.ca - самый быстрый торрент трекер в рунете!

Как скачивать  ·   Что такое торрент  ·   Рейтинг и ограничения



Последний раз редактировалось: bazalt (2013-12-22 20:28), всего редактировалось 3 раз(а)

Пост 22-Дек-2013 20:09 (спустя 1 час 24 минуты)

Топик был перенесен из форума Мультфильмы (Трюм) в форум Зарубежные полнометражные мультфильмы
erchine
 
Показать сообщения:    
Ответить на тему

Текущее время: Сегодня 16:32

Часовой пояс: GMT + 4



Вы не можете начинать темы
Вы не можете отвечать на сообщения
Вы не можете редактировать свои сообщения
Вы не можете удалять свои сообщения
Вы не можете голосовать в опросах
Вы не можете прикреплять файлы к сообщениям
Вы не можете скачивать файлы

▼ Вниз