ML
     
  Уважаемый Гость!
Вы можете поддержать проект и зарегистрироваться у наших партнеров - онлайн-стратегия MyLands. При регистрации в игре Вы получите код, который сможете активировать после регистрации на pirat.ca и получить 1000 дублонов.

Ваш код:
34514219cfad5497a1822ecc1269bea77988f9aa
 
     

Котенок Феликс спасает Рождество / Felix the Cat Saves Christmas (Дон Ориоло / Don Oriolo) [2004 г., комедия, приключения, сказка, мюзикл, семейный, DVDRip] (DVO)

Ответить на тему
 
Автор
Сообщение

Пост 06-Янв-2012 17:06

[Q] 

Sirota

Легенда

Котенок Феликс спасает Рождество / Felix the Cat Saves Christmas Год выпуска: 2004
Мировая премьера: 12 октября 2004
Производство: США Китай
Жанр: комедия, приключения, сказка, мюзикл, семейный
Продолжительность: 01:10:45
Перевод: профессиональный (двухголосый, закадровый)
Оригинальный аудиопоток: Английский
Режиссер: Дон Ориоло / Don Oriolo
В ролях: Дейв Кулир
Том Босли
Дон Ориоло
Джейсон Мэрсден
Кэти Грешам
Эрика Хэйс
Описание: Феликс и его верный помощник Пойндекстер должны спасти Санту и Рождество, остановив Снежную машину злого Профессора, которая создает бураны и штормы.
Доп. информация: сценарий Дон Ориоло
продюсер Walter Calmette, Майкл Хэк, Дон Ориоло,
композитор Пол Кристиансон, Дон Ориоло, Уинстон Шарплс
монтаж Майк Елиас
IMDB, КиноПоиск
Источник/Качество: DVDRip
Формат: AVI
Видео кодек: XviD
Аудио кодек: AC3
Видео: 688x528 (1.30:1), 25 fps, XviD build 50 ~2046 kbps avg, 0.23 bit/pixel
Аудио:Русский 48 kHz, AC3 Dolby Digital, 3/2 (L,C,R,l,r) + LFE ch, ~448.00 kbps avg
Аудио #2:Английский 48 kHz, AC3 Dolby Digital, 3/2 (L,C,R,l,r) + LFE ch, ~448.00 kbps avg
Субтитры: нет
General
Format : AVI
Format/Info : Audio Video Interleave
File size : 1.46 GiB
Duration : 1h 10mn
Overall bit rate : 2 958 Kbps
Writing application : VirtualDubMod 1.5.10.3 (build 2550/release)
Writing library : VirtualDubMod build 2550/release
Video #0
ID : 0
Format : MPEG-4 Visual
Format profile : [email protected]
Format settings, BVOP : Yes
Format settings, QPel : No
Format settings, GMC : No warppoints
Format settings, Matrix : Default (MPEG)
Codec ID : XVID
Codec ID/Hint : XviD
Duration : 1h 10mn
Bit rate : 2 048 Kbps
Width : 688 pixels
Height : 528 pixels
Display aspect ratio : 4:3
Frame rate : 25.000 fps
Resolution : 24 bits
Colorimetry : 4:2:0
Scan type : Progressive
Bits/(Pixel*Frame) : 0.225
Stream size : 1.01 GiB (69%)
Writing library : XviD 1.2.1 (UTC 2008-12-04)
Audio #1
ID : 1
Format : AC-3
Format/Info : Audio Coding 3
Codec ID : 2000
Duration : 1h 10mn
Bit rate mode : Constant
Bit rate : 448 Kbps
Channel(s) : 6 channels
Channel positions : Front: L C R, Surround: L R, LFE
Sampling rate : 48.0 KHz
Stream size : 227 MiB (15%)
Alignment : Split accross interleaves
Interleave, duration : 40 ms (1.00 video frame)
Interleave, preload duration : 500 ms
Audio #2
ID : 2
Format : AC-3
Format/Info : Audio Coding 3
Codec ID : 2000
Duration : 1h 10mn
Bit rate mode : Constant
Bit rate : 448 Kbps
Channel(s) : 6 channels
Channel positions : Front: L C R, Surround: L R, LFE
Sampling rate : 48.0 KHz
Stream size : 227 MiB (15%)
Alignment : Split accross interleaves
Interleave, duration : 40 ms (1.00 video frame)
Interleave, preload duration : 500 ms
Download / Скачать

Хотите скачать бесплатно? Зарегистрируйтесь на сайте (ссылка на регистрацию). Pirat.ca - самый быстрый торрент трекер в рунете!

Как скачивать  ·   Что такое торрент  ·   Рейтинг и ограничения

Пост 06-Янв-2012 17:21 (спустя 14 минут)

Топик был перенесен из форума Мультипликация в форум Зарубежные полнометражные мультфильмы

zyyx
 

CHARLI2236

1089

Пост 30-Окт-2012 13:13 (спустя 9 месяцев 23 дня)

[Q] 

спс

_________________


Последний раз редактировалось: CHARLI2236 (2013-03-14 19:39), всего редактировалось 1 раз
[Профиль]  [ЛС] 

svetliy172

Шкипер

Пост 22-Фев-2013 01:53 (спустя 3 месяца 22 дня)

[Q] 


_________________
Умение рyгаться матом, приходит с yмением водить машинy
[Профиль]  [ЛС] 
Показать сообщения:    
Ответить на тему

Текущее время: Сегодня 07:51

Часовой пояс: GMT + 4



Вы не можете начинать темы
Вы не можете отвечать на сообщения
Вы не можете редактировать свои сообщения
Вы не можете удалять свои сообщения
Вы не можете голосовать в опросах
Вы не можете прикреплять файлы к сообщениям
Вы не можете скачивать файлы

▼ Вниз