ML
     
  Уважаемый Гость!
Вы можете поддержать проект и зарегистрироваться у наших партнеров - онлайн-стратегия MyLands. При регистрации в игре Вы получите код, который сможете активировать после регистрации на pirat.ca и получить 1000 дублонов.

Ваш код:
4fbd9898b6f10799a3e8edf60f31febd2bc15453
 
     

Ворона-проказница / Der kleine Rabe Socke (Уте фон Мюнчо-Поль, Сэндор Джесси / Ute von Münchow-Pohl, Sandor Jesse) [2012 г., мультфильм, комедия, приключения, семейный, HDRip] MVO [Лицензия]

Ответить на тему
 
Автор
Сообщение

Пост 22-Янв-2014 17:32

[Q] 

aleksey99

--Ворона-проказница / Der kleine Rabe-- Производство: Германия, Akkord Film Produktion GmbH, Studio 88
Год выпуска: 2012 г.
Жанр: мультфильм, комедия, приключения, семейный
Продолжительность: 01:18:12--Мировая премьера: 6 сентября 2012
Релиз на DVD: 12 сентября 2013, «CP Дистрибуция»--Перевод: Профессиональный (многоголосый, закадровый) [Лицензия]--Режиссер: Уте фон Мюнчо-Поль, Сэндор Джесси / Ute von Münchow-Pohl, Sandor Jesse--В ролях: Катарина Тальбах, Константин фон Ящерофф, Анна Тальбах, Геральд Шаале, Сантьяго Зисмер--Описание: Главный герой мультфильма Ворона-проказница – Зок – черная ворона с желтым клювом. Он – главный герой серии детских книг, вышедших в 1996 году и разошедшихся по всему миру большими тиражами. Это первый полнометражный фильм с его участием.-- --Качество видео: HDRip
Контейнер: AVI
Видео кодек: XviD
Аудио кодек: AC3
Видео: 720x384 (1.88:1), 23.976 fps, XviD build 50 ~2044 kbps avg, 0.31 bit/pixel
Аудио: 48 kHz, AC3 Dolby Digital, 3/2 (L,C,R,l,r) + LFE ch, ~448 kbps
Cубтитры: отсутствуют
Общее
Полное имя : H:\Torrent2\Vorona.prokaznica.2012.P.HDRip_[pirat.ca].avi
Формат : AVI
Формат/Информация : Audio Video Interleave
Размер файла : 1,36 Гбайт
Продолжительность : 1 ч. 18 м.
Общий поток : 2496 Кбит/сек
Программа кодирования : VirtualDubMod 1.5.10.2 (build 2540/release)
Библиотека кодирования : VirtualDubMod build 2540/release
Видео
Идентификатор : 0
Формат : MPEG-4 Visual
Профиль формата : Advanced [email protected]
Параметр BVOP формата : 2
Параметр QPel формата : Нет
Параметр GMC формата : Без точки перехода
Параметр матрицы формата : Default (MPEG)
Идентификатор кодека : XVID
Идентификатор кодека/Подсказка : XviD
Продолжительность : 1 ч. 18 м.
Битрейт : 2045 Кбит/сек
Ширина : 720 пикселей
Высота : 384 пикселя
Соотношение сторон : 1,85:1
Частота кадров : 23,976 кадра/сек
Цветовое пространство : YUV
Субдискретизация насыщенности : 4:2:0
Битовая глубина : 8 бит
Тип развёртки : Прогрессивная
Метод сжатия : С потерями
Бит/(Пиксели*Кадры) : 0.308
Размер потока : 1,12 Гбайт (82%)
Библиотека кодирования : XviD 1.2.1 (UTC 2008-12-04)
Аудио
Идентификатор : 1
Формат : AC-3
Формат/Информация : Audio Coding 3
Расширение режима : CM (complete main)
Параметр Endianness формата : Big
Идентификатор кодека : 2000
Продолжительность : 1 ч. 17 м.
Вид битрейта : Постоянный
Битрейт : 448 Кбит/сек
Каналы : 6 каналов
Расположение каналов : Front: L C R, Side: L R, LFE
Частота : 48,0 КГц
Битовая глубина : 16 бит
Метод сжатия : С потерями
Размер потока : 247 Мбайт (18%)
Выравнивание : Разделение по промежуткам
Продолжительность промежутка : 42 мс. (1,01 видеокадр)
Время предзагрузки промежутка : 500 мс.
Трейлер
Download / Скачать

Хотите скачать бесплатно? Зарегистрируйтесь на сайте (ссылка на регистрацию). Pirat.ca - самый быстрый торрент трекер в рунете!

Как скачивать  ·   Что такое торрент  ·   Рейтинг и ограничения

serg_bmw

Гроза морей

650

Пост 23-Янв-2014 20:46 (спустя 1 день 3 часа)

[Q] 

Спасибо!!! Лови бочку

_________________
[Профиль]  [ЛС] 

shalonina

Гроза морей

Пост 26-Авг-2014 16:42 (спустя 7 месяцев 2 дня)

[Q] 

Автору респект!!!

_________________
[Профиль]  [ЛС] 
Показать сообщения:    
Ответить на тему

Текущее время: Сегодня 19:58

Часовой пояс: GMT + 4



Вы не можете начинать темы
Вы не можете отвечать на сообщения
Вы не можете редактировать свои сообщения
Вы не можете удалять свои сообщения
Вы не можете голосовать в опросах
Вы не можете прикреплять файлы к сообщениям
Вы не можете скачивать файлы

▼ Вниз