ML
     
  Уважаемый Гость!
Вы можете поддержать проект и зарегистрироваться у наших партнеров - онлайн-стратегия MyLands. При регистрации в игре Вы получите код, который сможете активировать после регистрации на pirat.ca и получить 1000 дублонов.

Ваш код:
34514219cfad5497a1822ecc1269bea77988f9aa
 
     

Микки: И снова под Рождество / Mickey's Twice Upon a Christmas (Мэттью О'Каллаган, Тереза Петтенджилл / Matthew O'Callaghan, Theresa Cullen) [2004 г., фэнтези, комедия, семейный, DVDRip] (Dub)

Ответить на тему
 
Автор
Сообщение

Пост 06-Янв-2012 17:31

[Q] 

Sirota

Легенда

Микки: И снова под Рождество / Mickey's Twice Upon a Christmas Год выпуска: 2004
Мировая премьера: 9 ноября 2004
Дата выхода DVD: 16 ноября 2010, «Уолт Дисней Компани СНГ»
Производство: США
Жанр: фэнтези, комедия, семейный
Продолжительность: 01:04:32
Перевод: профессиональный (полное дублирование)
Автор(ы) перевода: Максим Сергеев, Михаил Вассербаум, Снежина Копрова, Андрей Тенетко, Владислав Галкин
Режиссер: Мэттью О'Каллаган, Тереза Петтенджилл / Matthew O'Callaghan, Theresa Cullen
В ролях: Уэйн Оллвэйн
Тони Ансельмо
Билл Фармер
Шон Флемминг
Тресс МакНилл
Расси Тейлор
Джефф Беннетт
Джим Каммингс
Джейсон Мэрсден
Чак МакКанн
Описание: Приходите в гости к Санта Клаусу, Микки Маусу и другим диснеевским героям на праздник и узнайте, как они встречают Рождество. Cтарина Дональд всеми силами пытается противостоять празднику, в то время как Микки и Плуто веселятся от души.
Доп. информация: сценарий Чад Файвэш, Кэрол Холлидэй, Пегги Холмс,
продюсер Пэм Мэрсден, Аль Шир
композитор Стефен Джеймс Тейлор, Джим Уайз
художник Алан Боднер, Аарон Пауэлл
монтаж Кирк Деморест, Джули Роджерс
IMDB, КиноПоиск
Источник/Качество: DVDRip
Формат: AVI
Видео кодек: XviD
Аудио кодек: AC3
Видео: 672x384 (1.75:1), 25 fps, XviD build 50 ~1221 kbps avg, 0.19 bit/pixel
Аудио: 48 kHz, AC3 Dolby Digital, 3/2 (L,C,R,l,r) + LFE ch, ~384.00 kbps avg
Субтитры: нет
General
Format : AVI
Format/Info : Audio Video Interleave
File size : 746 MiB
Duration : 1h 4mn
Overall bit rate : 1 616 Kbps
Writing application : VirtualDubMod 1.5.10.2 (build 2540/release)
Writing library : VirtualDubMod build 2540/release
Video #0
ID : 0
Format : MPEG-4 Visual
Format profile : [email protected]
Format settings, BVOP : Yes
Format settings, QPel : No
Format settings, GMC : No warppoints
Format settings, Matrix : Default (MPEG)
Codec ID : XVID
Codec ID/Hint : XviD
Duration : 1h 4mn
Bit rate : 1 222 Kbps
Width : 672 pixels
Height : 384 pixels
Display aspect ratio : 16:9
Frame rate : 25.000 fps
Resolution : 24 bits
Colorimetry : 4:2:0
Scan type : Progressive
Bits/(Pixel*Frame) : 0.189
Stream size : 564 MiB (76%)
Writing library : XviD 1.2.1 (UTC 2008-12-04)
Audio #1
ID : 1
Format : AC-3
Format/Info : Audio Coding 3
Codec ID : 2000
Duration : 1h 4mn
Bit rate mode : Constant
Bit rate : 384 Kbps
Channel(s) : 6 channels
Channel positions : Front: L C R, Surround: L R, LFE
Sampling rate : 48.0 KHz
Video delay : 500ms
Stream size : 177 MiB (24%)
Alignment : Split accross interleaves
Interleave, duration : 40 ms (1.00 video frame)
Interleave, preload duration : 500 ms
-
-Релиз подготовлен:

-
-
Download / Скачать

Хотите скачать бесплатно? Зарегистрируйтесь на сайте (ссылка на регистрацию). Pirat.ca - самый быстрый торрент трекер в рунете!

Как скачивать  ·   Что такое торрент  ·   Рейтинг и ограничения

Принц Датский

Корсар

Пост 06-Янв-2012 17:56 (спустя 25 минут)

[Q] 

спасибо!с Рождеством Христовым!!!

_________________
[Профиль]  [ЛС] 

Пост 06-Янв-2012 19:44 (спустя 1 час 48 минут)

Топик был перенесен из форума Мультипликация в форум Зарубежные полнометражные мультфильмы

zyyx
 

CHARLI2236

1089

Пост 30-Окт-2012 13:18 (спустя 9 месяцев 23 дня)

[Q] 

спасибо

_________________
[Профиль]  [ЛС] 
Показать сообщения:    
Ответить на тему

Текущее время: Сегодня 07:51

Часовой пояс: GMT + 4



Вы не можете начинать темы
Вы не можете отвечать на сообщения
Вы не можете редактировать свои сообщения
Вы не можете удалять свои сообщения
Вы не можете голосовать в опросах
Вы не можете прикреплять файлы к сообщениям
Вы не можете скачивать файлы

▼ Вниз