ML
     
  Уважаемый Гость!
Вы можете поддержать проект и зарегистрироваться у наших партнеров - онлайн-стратегия MyLands. При регистрации в игре Вы получите код, который сможете активировать после регистрации на pirat.ca и получить 1000 дублонов.

Ваш код:
34514219cfad5497a1822ecc1269bea77988f9aa
 
     

Рождественская история / A Christmas Carol (Роберт Земекис / Robert Zemeckis) [2009 г., ужасы, фантастика, фэнтези, триллер, драма, комедия, семейный, HDRip] (Dub)

Ответить на тему
 
Автор
Сообщение

Пост 06-Янв-2012 18:00

[Q] 

Sirota

Легенда

Рождественская история / A Christmas Carol Год выпуска: 2009
Мировая премьера: 3 ноября 2009
Российская премьера: 19 ноября 2009, «BVSPR Disney»
Дата выхода DVD: 9 ноября 2010, «Уолт Дисней Компани СНГ»
Производство: США
Жанр: ужасы, фантастика, фэнтези, триллер, драма, комедия, семейный
Продолжительность: 01:35:48
Перевод: профессиональный (полное дублирование)
Автор(ы) перевода: Александр Филиппенко, Андрей Лёвин, Вадим Романов, Максим Сергеев, Юрий Лазарев
Режиссер: Роберт Земекис / Robert Zemeckis
В ролях: Джим Керри
Гари Олдман
Колин Фёрт
Кэри Элвис
Робин Райт
Боб Хоскинс
Стив Валентайн
Дэрил Сабара
Сэйдж Райан
Эмбер Гейни Миде
Описание: Это викторианская поучительная история о старом и ожесточившемся скупердяе Эбенезере Скрудже, который в течение одной ночи переживает испытание глубокого очищения. Мистер Скрудж - финансист/денежный меняла, который посвятил всю свою жизнь накоплению богатства. Он презирает всё, кроме денег, включая дружбу, любовь и рождественские праздники.
Доп. информация: сценарий Роберт Земекис, Чарльз Диккенс
продюсер Джек Рэпк, Стив Старки, Роберт Земекис,
оператор Роберт Пресли
композитор Алан Сильвестри
художник Даг Чианг, Брайан Флора, Марк Габбана,
монтаж Джереми О’Дрискол
бюджет $200 000 000
сборы в США $137 855 863
сборы в мире $325 286 646
сборы в России $13 318 820
DVD в США $34 326 839

IMDB, КиноПоиск
Источник/Качество: HDRip
Формат: AVI
Видео кодек: XviD
Аудио кодек: MP3
Видео: 656x272 (2.41:1), 23.976 fps, XviD build 50 ~953 kbps avg, 0.22 bit/pixel
Аудио: 48 kHz, MPEG Layer 3, 2 ch, ~128.00 kbps avg
Субтитры: нет
Жорж, 2010 год
Номинации (1):
Лучший анимационный фильм
Сатурн, 2010 год
Номинации (1):
Лучший анимационный фильм
General
Format : AVI
Format/Info : Audio Video Interleave
File size : 748 MiB
Duration : 1h 35mn
Overall bit rate : 1 091 Kbps
Writing application : VirtualDubMod 1.5.10.2 (build 2540/release)
Writing library : VirtualDubMod build 2540/release
Video #0
ID : 0
Format : MPEG-4 Visual
Format profile : [email protected]
Format settings, BVOP : Yes
Format settings, QPel : No
Format settings, GMC : No warppoints
Format settings, Matrix : Default (MPEG)
Codec ID : XVID
Codec ID/Hint : XviD
Duration : 1h 35mn
Bit rate : 954 Kbps
Width : 656 pixels
Height : 272 pixels
Display aspect ratio : 2.40:1
Frame rate : 23.976 fps
Resolution : 24 bits
Colorimetry : 4:2:0
Scan type : Progressive
Bits/(Pixel*Frame) : 0.223
Stream size : 654 MiB (87%)
Writing library : XviD 1.2.1 (UTC 2008-12-04)
Audio #1
ID : 1
Format : MPEG Audio
Format version : Version 1
Format profile : Layer 3
Codec ID : 55
Codec ID/Hint : MP3
Duration : 1h 35mn
Bit rate mode : Constant
Bit rate : 128 Kbps
Channel(s) : 2 channels
Sampling rate : 48.0 KHz
Resolution : 16 bits
Stream size : 87.7 MiB (12%)
Alignment : Aligned on interleaves
Interleave, duration : 42 ms (1.00 video frame)
Interleave, preload duration : 504 ms
Writing library : LAME3.98r
Encoding settings : -m s -V 4 -q 2 -lowpass 17 -b 128
-
-Релиз подготовлен:

-
-
Download / Скачать

Хотите скачать бесплатно? Зарегистрируйтесь на сайте (ссылка на регистрацию). Pirat.ca - самый быстрый торрент трекер в рунете!

Как скачивать  ·   Что такое торрент  ·   Рейтинг и ограничения

Пост 06-Янв-2012 19:44 (спустя 1 час 44 минуты)

Топик был перенесен из форума Мультипликация в форум Зарубежные полнометражные мультфильмы

zyyx
 

the_lame

Корсар

Пост 20-Янв-2012 08:44 (спустя 13 дней)

[Q] 

Спасибо. Давно хотел посмотреть, да все как-то не получалось.
[Профиль]  [ЛС] 

CHARLI2236

1089

Пост 30-Окт-2012 13:30 (спустя 9 месяцев 10 дней)

[Q] 

благодарю

_________________
[Профиль]  [ЛС] 

shalonina

Гроза морей

Пост 26-Авг-2014 17:20 (спустя 1 год 9 месяцев)

[Q] 

Спасибо!!!

_________________
[Профиль]  [ЛС] 
Показать сообщения:    
Ответить на тему

Текущее время: Сегодня 07:54

Часовой пояс: GMT + 4



Вы не можете начинать темы
Вы не можете отвечать на сообщения
Вы не можете редактировать свои сообщения
Вы не можете удалять свои сообщения
Вы не можете голосовать в опросах
Вы не можете прикреплять файлы к сообщениям
Вы не можете скачивать файлы

▼ Вниз