ML
     
  Уважаемый Гость!
Вы можете поддержать проект и зарегистрироваться у наших партнеров - онлайн-стратегия MyLands. При регистрации в игре Вы получите код, который сможете активировать после регистрации на pirat.ca и получить 1000 дублонов.

Ваш код:
fe4e93b754a7c2b306fcfc8bc32532ea1cf59d3b
 
     

Белоснежка и семь гномов / Snow White And The Seven Dwarfs (Дэвид Хэнд / David Hand) [1937 г., мюзикл, фэнтези, мелодрама, семейный, DVDRip] (MVO)

Ответить на тему
 
Автор
Сообщение

Пост 06-Янв-2012 18:29

[Q] 

Sirota

Легенда

Белоснежка и семь гномов / Snow White And The Seven Dwarfs Год выпуска: 1937
Мировая премьера: 21 декабря 1937
Дата выхода DVD: 29 октября 2009, «Уолт Дисней Компани СНГ»
Производство: США
Жанр: мюзикл, фэнтези, мелодрама, семейный
Продолжительность: 01:23:33
Перевод: профессиональный (многоголосый, закадровый)
Автор(ы) перевода: Евгений Умаров, Николай Федорцов, Евгения Игумнова, Елена Ушакова, Борис Смолкин
Режиссер: Дэвид Хэнд / David Hand
В ролях: Рой Этвелл
Стюарт Бьюкэнэн
Адриана Каселотти
хор Хэлла Джонсона
Эдди Коллинз
Пинто Колвиг
Мэрион Дарлингтон
Билли Гилберт
Отис Хэрлан
Люсиль Ла Верн
Описание: Экранизация знаменитой немецкой сказки братьев Гримм о Белоснежке, жившей в замке со злой мачехой-королевой, которая очень гордилась своей красотой. Узнав от волшебного зеркальца, что Белоснежка стала самой прекрасной девушкой на свете, завистница решила погубить прелестную падчерицу. Но бедная девушка не погибла в лесу, а наоборот, встретила там настоящих друзей — забавных семерых гномов: Профессора, Ворчуна, Весельчака, Скромника, Чихоню, Соню и Молчуна…
Доп. информация: режиссер Уильям Коттрелл, Дэвид Хэнд, Уилфред Джексон,
сценарий Вильгельм Гримм, Якоб Гримм, Уэбб Смит,
продюсер Уолт Дисней
композитор Ли Харлайн, Пол Дж. Смит
художник Кен Андерсон, Густаф Тенггрен, Джон Хабли
IMDB, КиноПоиск
Источник/Качество: DVDRip
Формат: AVI
Видео кодек: XviD
Аудио кодек: AC3
Видео: 720x544 (1.32:1), 25 fps, XviD Final 1.0.1 (build 35) ~1884 kbps avg, 0.19 bit/pixel
Аудио: 48 kHz, AC3 Dolby Digital, 3/2 (L,C,R,l,r) + LFE ch, ~448.00 kbps avg
Субтитры: нет
Сатурн, 2002 год
Победитель (1):
Лучшее DVD-издание классического фильма
Оскар, 1938 год
Номинации (1):
Лучший саундтрек
General
Format : AVI
Format/Info : Audio Video Interleave
File size : 1.36 GiB
Duration : 1h 23mn
Overall bit rate : 2 339 Kbps
Writing application : VirtualDubMod 1.5.4.1 (build 2178/release)
Writing library : VirtualDubMod build 2178/release
Video #0
ID : 0
Format : MPEG-4 Visual
Format profile : [email protected]
Format settings, BVOP : Yes
Format settings, QPel : No
Format settings, GMC : No warppoints
Format settings, Matrix : Custom
Codec ID : XVID
Codec ID/Hint : XviD
Duration : 1h 23mn
Bit rate : 1 884 Kbps
Width : 720 pixels
Height : 544 pixels
Display aspect ratio : 4:3
Frame rate : 25.000 fps
Resolution : 24 bits
Colorimetry : 4:2:0
Scan type : Progressive
Bits/(Pixel*Frame) : 0.192
Stream size : 1.10 GiB (81%)
Writing library : XviD 1.0.1 (UTC 2004-06-05)
Audio #1
ID : 1
Format : AC-3
Format/Info : Audio Coding 3
Codec ID : 2000
Duration : 1h 23mn
Bit rate mode : Constant
Bit rate : 448 Kbps
Channel(s) : 6 channels
Channel positions : Front: L C R, Surround: L R, LFE
Sampling rate : 48.0 KHz
Stream size : 268 MiB (19%)
Alignment : Split accross interleaves
Interleave, duration : 96 ms (2.40 video frames)
Interleave, preload duration : 96 ms
Language : Russian
-
-
-
-
Download / Скачать

Хотите скачать бесплатно? Зарегистрируйтесь на сайте (ссылка на регистрацию). Pirat.ca - самый быстрый торрент трекер в рунете!

Как скачивать  ·   Что такое торрент  ·   Рейтинг и ограничения

Пост 06-Янв-2012 19:44 (спустя 1 час 14 минут)

Топик был перенесен из форума Мультипликация в форум Зарубежные полнометражные мультфильмы

zyyx
 

^_^ Шеля ^_^

Шкипер

Пост 25-Июн-2012 15:30 (спустя 5 месяцев 18 дней)

[Q] 

[Профиль]  [ЛС] 

CHARLI2236

1089

Пост 30-Окт-2012 12:51 (спустя 4 месяца 4 дня)

[Q] 

спс

_________________
[Профиль]  [ЛС] 

}{rYn4iK

Морской Волк

Пост 31-Мар-2013 18:04 (спустя 5 месяцев 1 день)

[Q] 

[Профиль]  [ЛС] 

Eligos

Лоцман

Пост 24-Апр-2013 16:56 (спустя 23 дня)

[Q] 

Нифига себе! Мультик из детства оказался аж 37 года! Спасибо!
[Профиль]  [ЛС] 

EDIK44

Морской Волк

3

Пост 26-Апр-2013 21:44 (спустя 2 дня 4 часа)

[Q] 

[Профиль]  [ЛС] 
Показать сообщения:    
Ответить на тему

Текущее время: Сегодня 14:26

Часовой пояс: GMT + 4



Вы не можете начинать темы
Вы не можете отвечать на сообщения
Вы не можете редактировать свои сообщения
Вы не можете удалять свои сообщения
Вы не можете голосовать в опросах
Вы не можете прикреплять файлы к сообщениям
Вы не можете скачивать файлы

▼ Вниз