ML
     
  Уважаемый Гость!
Вы можете поддержать проект и зарегистрироваться у наших партнеров - онлайн-стратегия MyLands. При регистрации в игре Вы получите код, который сможете активировать после регистрации на pirat.ca и получить 1000 дублонов.

Ваш код:
0ea1bf889af42fca5f67d0a391efb3400850ad7c
 
     

Огнедышащий / Firebreather (Питер Чунг / Peter Chung) [2010 г., фантастика, приключения, боевик, HDRip] (Dub)

Ответить на тему
 
Автор
Сообщение

Пост 06-Янв-2012 20:22

[Q] 

Sirota

Легенда

Огнедышащий / Firebreather Год выпуска: 2010
Мировая премьера: 24 ноября 2010
Производство: США
Жанр: фантастика, приключения, боевик
Продолжительность: 01:09:00
Перевод: профессиональный (полное дублирование) + оригинал
Оригинальный аудиопоток: Английский
Режиссер: Питер Чунг / Peter Chung
В ролях: Тиа Тексада
Джесси Хэд
Данте Баско
Эми Дэвидсон
Дана Дилэйни
Грей ДеЛайл
Рид Даймонд
Billy Evans
Джошуа Китон
Джеймисон Мосс
Описание: История о фрагменте жизни 16-летнего юноши Дункана и его семьи. Мама Дункана обычный человек, а отец является гигантским драконом "кайджу" - древнейшей расы на земле. Дункан хочет, чтобы он был нормальным ребенком в обычной школе. Пока он не понимает, что он что-то очень далекое от нормального...
Доп. информация: сценарий Джеймс Крейг, Фил Хестер, Энди Кун
продюсер Carrie Wilksen, Vince Aniceto, Рэмси Энн Наито,
композитор Тоби Чу
художник Barry Jackson, Бэрри Е. Джексон, Фред Гамбино
монтаж Питер Томашевич
Сэмпл, IMDB, КиноПоиск
Источник/Качество: HDRip
Формат: AVI
Видео кодек: XviD
Аудио кодек: AC3
Видео: 704x400 (1.76:1), 23.976 fps, XviD build 58 ~1906 kbps avg, 0.28 bit/pixel
Аудио: Русский 48 kHz, AC3 Dolby Digital, 2/0 (L,R) ch, ~192.00 kbps avg
Аудио #2: Английский 48 kHz, AC3 Dolby Digital, 3/2 (L,C,R,l,r) + LFE ch, ~448.00 kbps avg
Субтитры: нет
General
Format : AVI
Format/Info : Audio Video Interleave
File size : 1.24 GiB
Duration : 1h 9mn
Overall bit rate : 2 562 Kbps
Writing application : VirtualDubMod 1.5.10.2 (build 2540/release)
Writing library : VirtualDubMod build 2540/release
Video #0
ID : 0
Format : MPEG-4 Visual
Format profile : [email protected]
Format settings, BVOP : Yes
Format settings, QPel : No
Format settings, GMC : No warppoints
Format settings, Matrix : Default (MPEG)
Codec ID : XVID
Codec ID/Hint : XviD
Duration : 1h 9mn
Bit rate : 1 908 Kbps
Width : 704 pixels
Height : 400 pixels
Display aspect ratio : 16:9
Frame rate : 23.976 fps
Resolution : 24 bits
Colorimetry : 4:2:0
Scan type : Progressive
Bits/(Pixel*Frame) : 0.283
Stream size : 943 MiB (74%)
Writing library : XviD 58
Audio #1
ID : 1
Format : AC-3
Format/Info : Audio Coding 3
Codec ID : 2000
Duration : 1h 9mn
Bit rate mode : Constant
Bit rate : 192 Kbps
Channel(s) : 2 channels
Channel positions : L R
Sampling rate : 48.0 KHz
Stream size : 94.9 MiB (7%)
Alignment : Split accross interleaves
Interleave, duration : 42 ms (1.00 video frame)
Interleave, preload duration : 500 ms
Audio #2
ID : 2
Format : AC-3
Format/Info : Audio Coding 3
Codec ID : 2000
Duration : 1h 9mn
Bit rate mode : Constant
Bit rate : 448 Kbps
Channel(s) : 6 channels
Channel positions : Front: L C R, Surround: L R, LFE
Sampling rate : 48.0 KHz
Stream size : 221 MiB (17%)
Alignment : Split accross interleaves
Interleave, duration : 42 ms (1.00 video frame)
Interleave, preload duration : 500 ms
-
-Релиз подготовлен:

-
-
Download / Скачать

Хотите скачать бесплатно? Зарегистрируйтесь на сайте (ссылка на регистрацию). Pirat.ca - самый быстрый торрент трекер в рунете!

Как скачивать  ·   Что такое торрент  ·   Рейтинг и ограничения

Пост 07-Янв-2012 03:53 (спустя 7 часов)

Топик был перенесен из форума Мультипликация в форум Зарубежные полнометражные мультфильмы

Sirota
 

ursus

Морской Волк

Пост 12-Фев-2012 14:35 (спустя 1 месяц 5 дней)

[Q] 

[Профиль]  [ЛС] 

CHARLI2236

1090

Пост 30-Окт-2012 13:21 (спустя 8 месяцев 17 дней)

[Q] 

спасибо

_________________
[Профиль]  [ЛС] 

shalonina

Гроза морей

Пост 26-Авг-2014 17:31 (спустя 1 год 9 месяцев)

[Q] 

помогу с раздачей.............................................. Спасибо!!!

_________________
[Профиль]  [ЛС] 
Показать сообщения:    
Ответить на тему

Текущее время: Сегодня 00:32

Часовой пояс: GMT + 4



Вы не можете начинать темы
Вы не можете отвечать на сообщения
Вы не можете редактировать свои сообщения
Вы не можете удалять свои сообщения
Вы не можете голосовать в опросах
Вы не можете прикреплять файлы к сообщениям
Вы не можете скачивать файлы

▼ Вниз