ML
     
  Уважаемый Гость!
Вы можете поддержать проект и зарегистрироваться у наших партнеров - онлайн-стратегия MyLands. При регистрации в игре Вы получите код, который сможете активировать после регистрации на pirat.ca и получить 1000 дублонов.

Ваш код:
c89b4b6523eaac3173e9a9c062ac1a19db575961
 
     

Облачно... 2: Месть ГМО / Cloudy with a Chance of Meatballs 2 (Коуди Камерон, Крис Пирн / Cody Cameron, Kris Pearn) [2013 г., мультфильм, фантастика, комедия, семейный, HDRip] Dub [Лицензия]

Ответить на тему
 
Автор
Сообщение

Пост 08-Фев-2014 19:08

[Q] 

ara1205

-Облачно... 2: Месть ГМО / Cloudy with a Chance of Meatballs 2-- Производство: США
Год выпуска: 2013 г.
Жанр: мультфильм, фантастика, комедия, семейный
Продолжительность: 01:34:49
Перевод: Профессиональный (полное дублирование) [Лицензия]-Режиссер: Коуди Камерон, Крис Пирн / Cody Cameron, Kris Pearn-В ролях: Билл Хейдер, Анна Фэрис, Джеймс Каан, Уилл Форте, Энди Сэмберг, Бенджамин Брэтт, Нил Патрик Харрис, Терри Крюс, Кристен Шол, Коуди Камерон-Описание: Все жители острова Поплавок покинули родной дом после событий предыдущего мультфильма. Главный герой Флинт Локвуд теперь работает в компании The Live Corp на своего кумира Честера. Но ему придется оставить свой пост когда он узнает, что его печально-известная машина все ещё работает и производит на свет опасных гибридов. Флинту предстоит ещё раз спасти мир и не дать коварной машине распространить громадную еду по всему миру.- -Качество видео: HDRip
Контейнер: AVI
Видео кодек: XviD
Аудио кодек: MP3
Видео: 688x288, 23,976 fps, 962 kbps avg, 0.202 bit/pixel
Аудио: 48 kHz, MPEG Layer 3, 2 ch, ~128.00 kbps avg
Cубтитры: отсутствуют-
Общее
Полное имя : C:\Users\Ромик\Pictures\Облачно\Oblachno.Mest.GMO.2013.HDRip.745Mb.avi
Формат : AVI
Формат/Информация : Audio Video Interleave
Размер файла : 745 Мбайт
Продолжительность : 1 ч. 34 м.
Общий поток : 1099 Кбит/сек
Программа кодирования : VirtualDubMod 1.5.10.2 (build 2540/release)
Библиотека кодирования : VirtualDubMod build 2540/release
Видео
Идентификатор : 0
Формат : MPEG-4 Visual
Профиль формата : Advanced [email protected]
Параметр BVOP формата : 2
Параметр QPel формата : Нет
Параметр GMC формата : Без точки перехода
Параметр матрицы формата : Default (MPEG)
Идентификатор кодека : XVID
Идентификатор кодека/Подсказка : XviD
Продолжительность : 1 ч. 34 м.
Битрейт : 962 Кбит/сек
Ширина : 688 пикселей
Высота : 288 пикселей
Соотношение сторон : 2,40:1
Частота кадров : 23,976 кадра/сек
Цветовое пространство : YUV
Субдискретизация насыщенности : 4:2:0
Битовая глубина : 8 бит
Тип развёртки : Прогрессивная
Метод сжатия : С потерями
Бит/(Пиксели*Кадры) : 0.202
Размер потока : 652 Мбайт (88%)
Библиотека кодирования : XviD 65
Аудио
Идентификатор : 1
Формат : MPEG Audio
Версия формата : Version 1
Профиль формата : Layer 3
Идентификатор кодека : 55
Идентификатор кодека/Подсказка : MP3
Продолжительность : 1 ч. 34 м.
Вид битрейта : Постоянный
Битрейт : 128 Кбит/сек
Каналы : 2 канала
Частота : 48,0 КГц
Метод сжатия : С потерями
Размер потока : 86,8 Мбайт (12%)
Выравнивание : Соединение по промежуткам
Продолжительность промежутка : 42 мс. (1,00 видеокадр)
Время предзагрузки промежутка : 504 мс.
Библиотека кодирования : LAMELAME_MAJOR_VERSI
-
-
Download / Скачать

Хотите скачать бесплатно? Зарегистрируйтесь на сайте (ссылка на регистрацию). Pirat.ca - самый быстрый торрент трекер в рунете!

Как скачивать  ·   Что такое торрент  ·   Рейтинг и ограничения

Goodwin277

Корсар

Пост 08-Фев-2014 19:59 (спустя 50 минут)

[Q] 

первая часть была прикольнее На любителя
[Профиль]  [ЛС] 

papa-rimskij123

Штурман

Пост 08-Фев-2014 20:02 (спустя 3 минуты)

[Q] 

Довольно таки интересное кино.С дитем смотрел в кино.рекомендую. Всем качать!!!
[Профиль]  [ЛС] 

serg_bmw

Гроза морей

650

Пост 11-Фев-2014 21:47 (спустя 3 дня)

[Q] 

Лови бочку Вы лучшие!

_________________
[Профиль]  [ЛС] 
Показать сообщения:    
Ответить на тему

Текущее время: Сегодня 22:34

Часовой пояс: GMT + 4



Вы не можете начинать темы
Вы не можете отвечать на сообщения
Вы не можете редактировать свои сообщения
Вы не можете удалять свои сообщения
Вы не можете голосовать в опросах
Вы не можете прикреплять файлы к сообщениям
Вы не можете скачивать файлы

▼ Вниз