ML
     
  Уважаемый Гость!
Вы можете поддержать проект и зарегистрироваться у наших партнеров - онлайн-стратегия MyLands. При регистрации в игре Вы получите код, который сможете активировать после регистрации на pirat.ca и получить 1000 дублонов.

Ваш код:
db0e0ad91548759ffeb9bb88bed405e1a4b3c165
 
     

Тор: Сказания Асгарда / Thor: Tales of Asgard (Сэм Лью / Sam Liu) [2011 г., фантастика, боевик, приключения, BDRip] (MVO)

Ответить на тему
 
Автор
Сообщение

Пост 07-Янв-2012 16:02

[Q] 

Sirota

Легенда

Тор: Сказания Асгарда / Thor: Tales of Asgard Год выпуска: 2011
Мировая премьера: 17 мая 2011
Дата выхода DVD: 30 июня 2011, «Флагман-Трейд»
Производство: США
Жанр: фантастика, боевик, приключения
Продолжительность: 01:16:57
Перевод: профессиональный (многоголосый, закадровый)
Режиссер: Сэм Лью / Sam Liu
В ролях: Мэттью Вульф
Рик Гомез
Тара Стронг
Элистер Эбелл
Пол Добсон
Брент Чэпман
Кристофер Бриттон
Ron Halder
Cathy Weseluck
Майкл Добсон
Описание: Молодой, храбрый и свободомыслящий Тор вместе со своим младшим братом Локи и верными солдатами решают отправиться на поиски мифического Меча Сартара, который даст невероятную силу своему обладателю, сделав из него непобедимого воина. Но юные герои даже не представляют, с какой смертельной опасностью им предстоит столкнуться. Ведь они далеко не единственные, кто мечтает завладеть этим оружием.
Доп. информация: сценарий Грег Джонсон, Крэйг Кайл, Джек Кирби,
продюсер Гари Хартл, Кевин Файги, Джошуа Файн,
композитор Гай Мишельмор
монтаж Джордж Ризкалла
Сэмпл, IMDB, КиноПоиск
Источник/Качество: BDRip [BDRemux]
Формат: AVI
Видео кодек: XviD
Аудио кодек: AC3
Видео: 720x400 (1.80:1), 23.976 fps, XviD build 63 ~2263 kbps avg, 0.33 bit/pixel
Аудио: 48 kHz, AC3 Dolby Digital, 3/2 (L,C,R,l,r) + LFE ch, ~448.00 kbps avg
Субтитры: нет
General
Format : AVI
Format/Info : Audio Video Interleave
File size : 1.46 GiB
Duration : 1h 16mn
Overall bit rate : 2 721 Kbps
Writing application : VirtualDubMod 1.5.10.2 (build 2540/release)
Writing library : VirtualDubMod build 2540/release
Video #0
ID : 0
Format : MPEG-4 Visual
Format profile : [email protected]
Format settings, BVOP : Yes
Format settings, QPel : No
Format settings, GMC : No warppoints
Format settings, Matrix : Default (MPEG)
Codec ID : XVID
Codec ID/Hint : XviD
Duration : 1h 16mn
Bit rate : 2 263 Kbps
Width : 720 pixels
Height : 400 pixels
Display aspect ratio : 16:9
Frame rate : 23.976 fps
Resolution : 24 bits
Colorimetry : 4:2:0
Scan type : Progressive
Bits/(Pixel*Frame) : 0.328
Stream size : 1.22 GiB (83%)
Writing library : XviD 63
Audio #1
ID : 1
Format : AC-3
Format/Info : Audio Coding 3
Codec ID : 2000
Duration : 1h 16mn
Bit rate mode : Constant
Bit rate : 448 Kbps
Channel(s) : 6 channels
Channel positions : Front: L C R, Surround: L R, LFE
Sampling rate : 48.0 KHz
Stream size : 247 MiB (16%)
Alignment : Split accross interleaves
Interleave, duration : 42 ms (1.00 video frame)
Interleave, preload duration : 500 ms
Download / Скачать

Хотите скачать бесплатно? Зарегистрируйтесь на сайте (ссылка на регистрацию). Pirat.ca - самый быстрый торрент трекер в рунете!

Как скачивать  ·   Что такое торрент  ·   Рейтинг и ограничения

Пост 07-Янв-2012 16:12 (спустя 10 минут)

Топик был перенесен из форума Мультипликация в форум Новинки (HD|DVD|BD|TV|SAT|PDTV| - Rips)

zyyx
 

OlegSh

Морской Волк

Пост 02-Май-2012 10:25 (спустя 3 месяца 25 дней)

[Q] 

надо посмотреть
[Профиль]  [ЛС] 

CHARLI2236

1098

Пост 30-Окт-2012 13:38 (спустя 5 месяцев 28 дней)

[Q] 

благодарю

_________________
[Профиль]  [ЛС] 

Psyhocrack

Лоцман

Пост 15-Ноя-2012 00:57 (спустя 15 дней)

[Q] 

[Профиль]  [ЛС] 

Amon

Корсар

Пост 15-Ноя-2012 20:51 (спустя 19 часов)

[Q] 

[Профиль]  [ЛС] 
Показать сообщения:    
Ответить на тему

Текущее время: Сегодня 08:10

Часовой пояс: GMT + 4



Вы не можете начинать темы
Вы не можете отвечать на сообщения
Вы не можете редактировать свои сообщения
Вы не можете удалять свои сообщения
Вы не можете голосовать в опросах
Вы не можете прикреплять файлы к сообщениям
Вы не можете скачивать файлы

▼ Вниз