ML
     
  Уважаемый Гость!
Вы можете поддержать проект и зарегистрироваться у наших партнеров - онлайн-стратегия MyLands. При регистрации в игре Вы получите код, который сможете активировать после регистрации на pirat.ca и получить 1000 дублонов.

Ваш код:
cc3be08b7507661c03e0a2f582d0da3a659ea55a
 
     

Барби: Жемчужная Принцесса / Barbie: The Pearl Princess (Терри Классен / Terry Klassen) [2014 г., мультфильм, BDRip] Dub [Лицензия] + Original (Eng)

Ответить на тему
 
Автор
Сообщение

Пост 15-Фев-2014 19:29

[Q] 

aleksey99

--Барби: Жемчужная Принцесса / Barbie: The Pearl Princess-- Производство: США, Universal Pictures
Год выпуска: 2014 г.
Жанр: мультфильм
Продолжительность: 01:13:35--Релиз на Blu-Ray: 20 февраля 2014, «Двадцатый Век Фокс СНГ»
Релиз на DVD: 20 февраля 2014, «Двадцатый Век Фокс СНГ»--Перевод: Профессиональный (полное дублирование) [Лицензия]
Оригинальный аудиопоток: английский--Режиссер: Терри Классен / Terry Klassen--В ролях: Келли Шеридан--Описание: Полнометражный мультфильм Barbie® «Жемчужная принцесса» посвящен приключениям главной героини по имени Лумина. Она работает стилистом в салоне красоты, обладает способностью менять цвет жемчуга и даже не подозревает о том, что на самом деле является принцессой-русалкой. История полна захватывающих приключений, перевоплощений и неожиданных сюжетных поворотов.-- --Качество видео: BDRip
Контейнер: AVI
Видео кодек: XviD
Аудио кодек: AC3
Видео: 720x400 (1.80:1), 23.976 fps, XviD MPEG-4 ~1750 kbps avg, 0.25 bit/pixel
Аудио 1: 48 kHz, AC3 Dolby Digital, 3/2 (L,C,R,l,r) + LFE ch, ~448 kbps RUS
Аудио 2: 48 kHz, AC3 Dolby Digital, 3/2 (L,C,R,l,r) + LFE ch, ~448 kbps ENG
Cубтитры: Отсутствуют
Общее
Полное имя : H:\Torrent2\Brbi.Jemchugnaya.Princtssa.2014.D.BDRip.1400Mb_[pirat.ca].avi
Формат : AVI
Формат/Информация : Audio Video Interleave
Размер файла : 1,37 Гбайт
Продолжительность : 1 ч. 13 м.
Общий поток : 2661 Кбит/сек
Программа кодирования : VirtualDubMod 1.5.10.2 (build 2540/release)
Библиотека кодирования : VirtualDubMod build 2540/release
Видео
Идентификатор : 0
Формат : MPEG-4 Visual
Профиль формата : Advanced [email protected]
Параметр BVOP формата : 2
Параметр QPel формата : Нет
Параметр GMC формата : Без точки перехода
Параметр матрицы формата : Выборочная
Идентификатор кодека : XVID
Идентификатор кодека/Подсказка : XviD
Продолжительность : 1 ч. 13 м.
Битрейт : 1751 Кбит/сек
Ширина : 720 пикселей
Высота : 400 пикселей
Соотношение сторон : 16:9
Частота кадров : 23,976 кадра/сек
Цветовое пространство : YUV
Субдискретизация насыщенности : 4:2:0
Битовая глубина : 8 бит
Тип развёртки : Прогрессивная
Метод сжатия : С потерями
Бит/(Пиксели*Кадры) : 0.254
Размер потока : 922 Мбайт (66%)
Библиотека кодирования : XviD 1.2.1 (UTC 2008-12-04)
Аудио #1
Идентификатор : 1
Формат : AC-3
Формат/Информация : Audio Coding 3
Расширение режима : CM (complete main)
Параметр Endianness формата : Big
Идентификатор кодека : 2000
Продолжительность : 1 ч. 13 м.
Вид битрейта : Постоянный
Битрейт : 448 Кбит/сек
Каналы : 6 каналов
Расположение каналов : Front: L C R, Side: L R, LFE
Частота : 48,0 КГц
Битовая глубина : 16 бит
Метод сжатия : С потерями
Размер потока : 236 Мбайт (17%)
Выравнивание : Разделение по промежуткам
Продолжительность промежутка : 42 мс. (1,00 видеокадр)
Время предзагрузки промежутка : 500 мс.
Аудио #2
Идентификатор : 2
Формат : AC-3
Формат/Информация : Audio Coding 3
Расширение режима : CM (complete main)
Параметр Endianness формата : Big
Идентификатор кодека : 2000
Продолжительность : 1 ч. 13 м.
Вид битрейта : Постоянный
Битрейт : 448 Кбит/сек
Каналы : 6 каналов
Расположение каналов : Front: L C R, Side: L R, LFE
Частота : 48,0 КГц
Битовая глубина : 16 бит
Метод сжатия : С потерями
Размер потока : 236 Мбайт (17%)
Выравнивание : Разделение по промежуткам
Продолжительность промежутка : 42 мс. (1,00 видеокадр)
Время предзагрузки промежутка : 500 мс.
Трейлер
Download / Скачать

Хотите скачать бесплатно? Зарегистрируйтесь на сайте (ссылка на регистрацию). Pirat.ca - самый быстрый торрент трекер в рунете!

Как скачивать  ·   Что такое торрент  ·   Рейтинг и ограничения

Пост 15-Фев-2014 23:07 (спустя 3 часа)

Топик был перенесен из форума Мультфильмы (Трюм) в форум Новинки (HD|DVD|BD| TV|SAT|PDTV| - Rips)
erchine
 

Polina

Штурман

Пост 16-Фев-2014 13:06 (спустя 17 часов)

[Q] 

Ребёнок в восторге!
Добавлено спустя 1 час 2 минуты 28 секунд:
А есть ли продолжение?
[Профиль]  [ЛС] 

KoSkud

Флибустьер

Пост 16-Фев-2014 15:33 (спустя 2 часа 26 минут)

[Q] 

а ничё так,судя по реакции дочери (4 года).Спасибо за релиз

_________________
Учись-играя,играя-учись
[Профиль]  [ЛС] 

Jek@

Легенда

Пост 17-Фев-2014 02:45 (спустя 11 часов)

[Q] 

Спасибо!!! .
[Профиль]  [ЛС] 

ГИППАРРД

Морской Волк

2

Пост 17-Фев-2014 08:38 (спустя 5 часов)

[Q] 

Ща скачаем!!!!
[Профиль]  [ЛС] 

alena1983

Лоцман

Пост 17-Фев-2014 20:32 (спустя 11 часов)

[Q] 

Объясните почему мультик скачивается и воспроизводится на английском языке?
[Профиль]  [ЛС] 

aleksey99 ®

282536

Пост 17-Фев-2014 21:26 (спустя 54 минуты)

[Q] 

494827Объясните почему мультик скачивается и воспроизводится на английском языке?
Странно. По умолчанию стоит русская дорожка. Попробуйте переключить дорожки в плеере.

_________________

[Профиль]  [ЛС] 

bs_z03

Шкипер

Пост 18-Фев-2014 16:14 (спустя 18 часов)

[Q] 

скачаю мелкой Спасибо!!!
[Профиль]  [ЛС] 

alena1983

Лоцман

Пост 18-Фев-2014 17:55 (спустя 1 час 40 минут)

[Q] 

Спасибо, все настроила.
[Профиль]  [ЛС] 

shalonina

Гроза морей

Пост 26-Авг-2014 16:41 (спустя 6 месяцев 7 дней)

[Q] 

Спасибо!!!

_________________
[Профиль]  [ЛС] 
Показать сообщения:    
Ответить на тему

Текущее время: Сегодня 05:03

Часовой пояс: GMT + 4



Вы не можете начинать темы
Вы не можете отвечать на сообщения
Вы не можете редактировать свои сообщения
Вы не можете удалять свои сообщения
Вы не можете голосовать в опросах
Вы не можете прикреплять файлы к сообщениям
Вы не можете скачивать файлы

▼ Вниз