ML
     
  Уважаемый Гость!
Вы можете поддержать проект и зарегистрироваться у наших партнеров - онлайн-стратегия MyLands. При регистрации в игре Вы получите код, который сможете активировать после регистрации на pirat.ca и получить 1000 дублонов.

Ваш код:
73640f24f8a0f579e128ea7346fd2db2b1009143
 
     

Девочка из джунглей / Jungle Girl And The Lost Island Of The Dinosaurs (Сьюзен Бик, Джеф Бик / Susan Beak, Jeff Beck) [2002, Мультипликация, DVDRip]

Ответить на тему
 
Автор
Сообщение

Пост 07-Янв-2012 22:15

[Q] 

Андря

Девочка из джунглей / Jungle Girl And The Lost Island Of The Dinosaurs Страна: Австралия
Жанр: Мультипликация
Продолжительность: 00:47:46
Год выпуска: 2002
Перевод: Профессиональный (многоголосый закадровый)
Режиссёр: Сьюзен Бик, Джеф Бик / Susan Beak, Jeff Beck
Описание: Увлекательная приключенческая история о маленькой девочке Эмме, которая вместе со своим отцом - профессором географии в результате кораблекрушения попала на загадочный остров с необычным названием "Золотая Обезьяна". Героям теперь предстоит выжить в диких джунглях, полных опасностей. Они научатся понимать язык зверей и птиц и приобретут много новых друзей.
Качество: DVDRip
Формат: AVI
Видео кодек: XVID
Аудио кодек: AC-3
Видео: 688x512 (1.34:1), 25 fps, XviD, 1935 kbps avg, 0.22 bit/pixel
Аудио: Dolby AC3 48000Hz stereo 224kbps
Общее
Полное имя : Devochka_iz_dzhunglej.avi
Формат : AVI
Формат/Информация : Audio Video Interleave
Размер файла : 741 Мбайт
Продолжительность : 47 м.
Общий поток : 2169 Кбит/сек
Программа кодирования : VirtualDubMod 1.5.10.2 (build 2540/release)
Библиотека кодирования : VirtualDubMod build 2540/release
Видео
Идентификатор : 0
Формат : MPEG-4 Visual
Профиль формата : Advanced [email protected]
Параметр BVOP формата : 2
Параметр QPel формата : Нет
Параметр GMC формата : Без точки перехода
Параметр матрицы формата : Default (H.263)
Идентификатор кодека : XVID
Идентификатор кодека/Подсказка : XviD
Продолжительность : 47 м.
Битрейт : 1935 Кбит/сек
Ширина : 688 пикселей
Высота : 512 пикселей
Соотношение сторон : 4:3
Частота кадров : 25,000 кадров/сек
Цветовое пространство : YUV
Субдискретизация насыщенности : 4:2:0
Битовая глубина : 8 бит
Тип развёртки : Прогрессивная
Метод сжатия : С потерями
Бит/(Пиксели*Кадры) : 0.220
Размер потока : 661 Мбайт (89%)
Библиотека кодирования : XviD 1.2.1 (UTC 2008-12-04)
Аудио
Идентификатор : 1
Формат : AC-3
Формат/Информация : Audio Coding 3
Расширение режима : CM (complete main)
Идентификатор кодека : 2000
Продолжительность : 47 м.
Вид битрейта : Постоянный
Битрейт : 224 Кбит/сек
Каналы : 2 канала
Расположение каналов : Front: L R
Частота : 48,0 КГц
Битовая глубина : 16 бит
Метод сжатия : С потерями
Размер потока : 76,5 Мбайт (10%)
Выравнивание : Разделение по промежуткам
Продолжительность промежутка : 40 мс. (1,00 видеокадр)
Время предзагрузки промежутка : 500 мс.




Download / Скачать

Хотите скачать бесплатно? Зарегистрируйтесь на сайте (ссылка на регистрацию). Pirat.ca - самый быстрый торрент трекер в рунете!

Как скачивать  ·   Что такое торрент  ·   Рейтинг и ограничения

Пост 08-Янв-2012 22:40 (спустя 1 день)

Топик был перенесен из форума Мультипликация в форум Зарубежные полнометражные мультфильмы

Sirota
 

rezjus

Корсар

Пост 15-Фев-2012 23:32 (спустя 1 месяц 8 дней)

[Q] 

Спасибо. Мультик увлекательный.
[Профиль]  [ЛС] 

yano4ka

Шкипер

Пост 07-Дек-2012 19:22 (спустя 9 месяцев 20 дней)

[Q] 

спс)
[Профиль]  [ЛС] 

shalonina

Гроза морей

Пост 26-Авг-2014 17:10 (спустя 1 год 8 месяцев)

[Q] 

помогу с раздачей.....................................................................

_________________
[Профиль]  [ЛС] 
Показать сообщения:    
Ответить на тему

Текущее время: Сегодня 22:38

Часовой пояс: GMT + 4



Вы не можете начинать темы
Вы не можете отвечать на сообщения
Вы не можете редактировать свои сообщения
Вы не можете удалять свои сообщения
Вы не можете голосовать в опросах
Вы не можете прикреплять файлы к сообщениям
Вы не можете скачивать файлы

▼ Вниз