ML
     
  Уважаемый Гость!
Вы можете поддержать проект и зарегистрироваться у наших партнеров - онлайн-стратегия MyLands. При регистрации в игре Вы получите код, который сможете активировать после регистрации на pirat.ca и получить 1000 дублонов.

Ваш код:
73640f24f8a0f579e128ea7346fd2db2b1009143
 
     

Самый маленький ангел / The Littlest Angel (Дэйв Ким / Dave Kim) [2011 г., мультфильм, HDRip] (DVO)

Ответить на тему
 
Автор
Сообщение

Пост 07-Янв-2012 22:22

[Q] 

zyyx

--Самый маленький ангел / The Littlest Angel
«Recently arrived in heaven, 5-year-old "Littlest Angel" wants to return to Earth in order to retrieve his treasure box and earn his wings.»
-- Год выпуска: 2011
Производство: США
Жанр: мультфильм
Продолжительность: 01:23:05
Перевод: Любительский (двухголосый)
Оригинальный аудиопоток: Английский
Режиссер: Дэйв Ким / Dave Kim
В ролях: Рон Перлман, Нина Кирхер, Эд Келли, Калеб Вульф, Клэрити Петтон
Описание: По мотивам книги Чарльза Тэзьюелла. Маленький ангел отправляется на землю со своим верным другом, щенком Ореолом. Малёк собирается вернуть себе коробочку, которая так напоминает ему о земной жизни, о временах, когда он был простым мальчиком. Но земля разительно отличается от райских небес и тут его жизни грозит опасность, остается надеяться лишь на своего преданного пса Ореола и на крепкую дружбу.
Источник/Качество: HDRip | Сэмпл
Формат: AVI
Видео кодек: XviD
Аудио кодек: AC3
Видео: 720x400 (1.80:1), 23.976 fps, XviD MPEG-4, 1799 kbps avg, 0.26 bit/pixel
Аудио: 48 kHz, AC3 Dolby Digital, 2/0 (L,R) ch, 256 kbps
Аудио #2: 48 kHz, AC3 Dolby Digital, 3/2 (L,C,R,l,r) + LFE ch, 448 kbps
General
Complete name : K:\Samyi.malenkiy.angel.2011.L.HDRip.avi
Format : AVI
Format/Info : Audio Video Interleave
File size : 1.46 GiB
Duration : 1h 23mn
Overall bit rate : 2 518 Kbps
Writing application : VirtualDubMod 1.5.10.2 (build 2540/release)
Writing library : VirtualDubMod build 2540/release
Video
ID : 0
Format : MPEG-4 Visual
Format profile : [email protected]
Format settings, BVOP : Yes
Format settings, QPel : Yes
Format settings, GMC : No warppoints
Format settings, Matrix : Default (H.263)
Muxing mode : Packed bitstream
Codec ID : XVID
Codec ID/Hint : XviD
Duration : 1h 23mn
Bit rate : 1 800 Kbps
Width : 720 pixels
Height : 400 pixels
Display aspect ratio : 16:9
Frame rate : 23.976 fps
Resolution : 24 bits
Colorimetry : 4:2:0
Scan type : Progressive
Bits/(Pixel*Frame) : 0.261
Stream size : 1.04 GiB (71%)
Writing library : XviD 1.2.1 (UTC 2008-12-04)
Audio #1
ID : 1
Format : AC-3
Format/Info : Audio Coding 3
Codec ID : 2000
Duration : 1h 23mn
Bit rate mode : Constant
Bit rate : 256 Kbps
Channel(s) : 2 channels
Channel positions : L R
Sampling rate : 48.0 KHz
Video delay : 28ms
Stream size : 152 MiB (10%)
Alignment : Split accross interleaves
Interleave, duration : 42 ms (1.00 video frame)
Interleave, preload duration : 500 ms
Audio #2
ID : 2
Format : AC-3
Format/Info : Audio Coding 3
Codec ID : 2000
Duration : 1h 23mn
Bit rate mode : Constant
Bit rate : 448 Kbps
Channel(s) : 6 channels
Channel positions : Front: L C R, Surround: L R, LFE
Sampling rate : 48.0 KHz
Stream size : 266 MiB (18%)
Alignment : Split accross interleaves
Interleave, duration : 42 ms (1.00 video frame)
Interleave, preload duration : 500 ms
Download / Скачать

Хотите скачать бесплатно? Зарегистрируйтесь на сайте (ссылка на регистрацию). Pirat.ca - самый быстрый торрент трекер в рунете!

Как скачивать  ·   Что такое торрент  ·   Рейтинг и ограничения

Пост 08-Янв-2012 00:11 (спустя 1 час 49 минут)

Топик был перенесен из форума Мультипликация в форум Новинки (HD|DVD|BD|TV|SAT|PDTV| - Rips)

Sirota
 

Воффка

Морской Волк

Пост 08-Янв-2012 17:01 (спустя 18 часов)

[Q] 

Спасибо. Кто уже смотрел? Имеет смысл время тратить?

_________________
-= Водка, шлюхи, Death Metal!!!=-
[Профиль]  [ЛС] 

gao81

Лоцман

Пост 09-Янв-2012 17:55 (спустя 1 день)

[Q] 

походу дела никто не смотрел((((
[Профиль]  [ЛС] 

Воффка

Морской Волк

Пост 13-Янв-2012 14:14 (спустя 3 дня)

[Q] 

прискорбно

_________________
-= Водка, шлюхи, Death Metal!!!=-
[Профиль]  [ЛС] 

berezeca

Корсар

Пост 06-Фев-2012 18:59 (спустя 24 дня)

[Q] 

Спасибо.
[Профиль]  [ЛС] 
Показать сообщения:    
Ответить на тему

Текущее время: Сегодня 22:30

Часовой пояс: GMT + 4



Вы не можете начинать темы
Вы не можете отвечать на сообщения
Вы не можете редактировать свои сообщения
Вы не можете удалять свои сообщения
Вы не можете голосовать в опросах
Вы не можете прикреплять файлы к сообщениям
Вы не можете скачивать файлы

▼ Вниз