ML
     
  Уважаемый Гость!
Вы можете поддержать проект и зарегистрироваться у наших партнеров - онлайн-стратегия MyLands. При регистрации в игре Вы получите код, который сможете активировать после регистрации на pirat.ca и получить 1000 дублонов.

Ваш код:
5f4e94775bc0501caff7b254e79328d304c817d9
 
     

Храброе сердце / Ritter Rost - Eisenhart und voll verbeult (Томас Боденштайн, Хьюберт Вейланд / Thomas Bodenstein, Hubert Weiland) [2013 г., мультфильм, приключения, семейный, HDRip] Dub [Чистый звук]

Ответить на тему
 
Автор
Сообщение

Пост 25-Фев-2014 05:09

[Q] 

aleksey99

--Храброе сердце / Ritter Rost - Eisenhart und voll verbeult--«Приключения в тридесятом королевстве»- -Производство: Германия, Caligari Film- und Fernsehproduktions GmbH, Universum Film (UFA), Zweites Deutsches Fernsehen (ZDF)
Год выпуска: 2013 г.
Жанр: мультфильм, приключения, семейный
Продолжительность: 01:23:58--Мировая премьера: 10 января 2013
Российская премьера: 30 января 2014, «Наше Кино»--Перевод: Профессиональный (полное дублирование) [Чистый звук]--Режиссер: Томас Боденштайн, Хьюберт Вейланд / Thomas Bodenstein, Hubert Weiland--В ролях: Рик Каваниан, Каролин Кебекус, Кристоф Мария Хербст, Том Герхардт, Детлеф Редингер, Дастин Земмельрогге, Хартмут Нойгебауер, Ульрих Фрэнк, Пьер Питерс-Арнольдс, Анита Хёфер--Описание: В одном сказочном королевстве, где есть мудрый король, прекрасная принцесса и храбрый рыцарь, как это всегда бывает в сказках, появился хитрый и коварный злодей, задумавший стать новым правителем. Единственный кто может помешать его планам — находчивый рыцарь Расти. Пусть пока у него не все получается, и многие не воспринимают его всерьез, он обязательно станет настоящим героем и вместе со своими верными друзьями спасет королевство.-- --Качество видео: HDRip
Контейнер: AVI
Видео кодек: XviD
Аудио кодек: AC3
Видео: 720x400 (1.80:1), 23.976 fps, XviD build 50 ~1936 kbps avg, 0.28 bit/pixel
Аудио: 48 kHz, AC3 Dolby Digital, 2/0 (L,R) ch, ~384 kbps
Cубтитры: отсутствуют
-
Общее
Полное имя : H:\Torrent2\Hrabroe.Serdce.2013.D.HDRip.1400MB_[pirat.ca].avi
Формат : AVI
Формат/Информация : Audio Video Interleave
Размер файла : 1,37 Гбайт
Продолжительность : 1 ч. 23 м.
Общий поток : 2330 Кбит/сек
Программа кодирования : VirtualDubMod 1.5.10.2 (build 2540/release)
Библиотека кодирования : VirtualDubMod build 2540/release
Видео
Идентификатор : 0
Формат : MPEG-4 Visual
Профиль формата : Advanced [email protected]
Параметр BVOP формата : 2
Параметр QPel формата : Нет
Параметр GMC формата : Без точки перехода
Параметр матрицы формата : Default (MPEG)
Идентификатор кодека : XVID
Идентификатор кодека/Подсказка : XviD
Продолжительность : 1 ч. 23 м.
Битрейт : 1937 Кбит/сек
Ширина : 720 пикселей
Высота : 400 пикселей
Соотношение сторон : 16:9
Частота кадров : 23,976 кадра/сек
Цветовое пространство : YUV
Субдискретизация насыщенности : 4:2:0
Битовая глубина : 8 бит
Тип развёртки : Прогрессивная
Метод сжатия : С потерями
Бит/(Пиксели*Кадры) : 0.280
Размер потока : 1,14 Гбайт (83%)
Библиотека кодирования : XviD 1.2.1 (UTC 2008-12-04)
Аудио
Идентификатор : 1
Формат : AC-3
Формат/Информация : Audio Coding 3
Расширение режима : CM (complete main)
Параметр Endianness формата : Big
Идентификатор кодека : 2000
Продолжительность : 1 ч. 23 м.
Вид битрейта : Постоянный
Битрейт : 384 Кбит/сек
Каналы : 2 канала
Расположение каналов : Front: L R
Частота : 48,0 КГц
Битовая глубина : 16 бит
Метод сжатия : С потерями
Размер потока : 231 Мбайт (16%)
Выравнивание : Разделение по промежуткам
Продолжительность промежутка : 42 мс. (1,00 видеокадр)
Время предзагрузки промежутка : 500 мс.
Трейлер
Download / Скачать

Хотите скачать бесплатно? Зарегистрируйтесь на сайте (ссылка на регистрацию). Pirat.ca - самый быстрый торрент трекер в рунете!

Как скачивать  ·   Что такое торрент  ·   Рейтинг и ограничения

Пост 25-Фев-2014 09:23 (спустя 4 часа)

Топик был перенесен из форума Мультфильмы (Трюм) в форум Новинки (HD|DVD|BD| TV|SAT|PDTV| - Rips)
ara1205
 

KoSkud

Флибустьер

Пост 25-Фев-2014 10:39 (спустя 5 часов)

[Q] 

спасибо,Алексей,посмотрим что за новинка такая ))

_________________
Учись-играя,играя-учись
[Профиль]  [ЛС] 

polozm

Легенда

Пост 25-Фев-2014 12:31 (спустя 1 час 51 минута)

[Q] 

Спасибо огромное!дочке на вечер качну!!!

_________________
mac mini -2.0 GHz Intel Core i7/ 8 GB DDR3. /Intel HD 3000(512mb)OS X 10.9 Mavericks
[Профиль]  [ЛС] 

Aleks44

Гроза морей

Пост 25-Фев-2014 21:48 (спустя 9 часов)

[Q] 

Своеобразный мультик, в целом неплохо
[Профиль]  [ЛС] 

zvyagin_da

Пост 26-Фев-2014 00:12 (спустя 2 часа 24 минуты)

[Q] 

Спасибо для сына скачвю
[Профиль]  [ЛС] 

polozm

Легенда

Пост 26-Фев-2014 09:49 (спустя 9 часов)

[Q] 

498786Своеобразный мультик, в целом неплохо
вот -вот.дочка сказала ,что нормальный мульт.а я бы его через 5 минут бы выключил :)
немецкие мультфильмы такие немецкие ;)

_________________
mac mini -2.0 GHz Intel Core i7/ 8 GB DDR3. /Intel HD 3000(512mb)OS X 10.9 Mavericks
[Профиль]  [ЛС] 

alerden2010

Шкипер

Пост 04-Мар-2014 14:20 (спустя 6 дней)

[Q] 

Спасибо ребенку нравится Супер!
[Профиль]  [ЛС] 

lo.oktosky

Морской Волк

Пост 23-Мар-2014 19:48 (спустя 19 дней)

[Q] 

взрослым, в общем, качать не стоит...
детям 50*50. На любителя
по мне не лучшие жизненные уроки в повествовании и персонажах.
совсем только юным человекам может понравится.
для них в общем и слеплено.
[Профиль]  [ЛС] 
Показать сообщения:    
Ответить на тему

Текущее время: Сегодня 15:31

Часовой пояс: GMT + 4



Вы не можете начинать темы
Вы не можете отвечать на сообщения
Вы не можете редактировать свои сообщения
Вы не можете удалять свои сообщения
Вы не можете голосовать в опросах
Вы не можете прикреплять файлы к сообщениям
Вы не можете скачивать файлы

▼ Вниз