ML
     
  Уважаемый Гость!
Вы можете поддержать проект и зарегистрироваться у наших партнеров - онлайн-стратегия MyLands. При регистрации в игре Вы получите код, который сможете активировать после регистрации на pirat.ca и получить 1000 дублонов.

Ваш код:
c89b4b6523eaac3173e9a9c062ac1a19db575961
 
     

Абрафакс: под пиратским флагом / Abrafax: Under Black Flag (Герхард Хахн, Тони Пауэр) [2001 г., мультфильм, приключения, DVDRip]

Ответить на тему
 
Автор
Сообщение

Пост 08-Янв-2012 17:18

[Q] 

Андря

Абрафакс под пиратским флагом / Die Abrafaxe - Unter schwarzer Flagge«Das grosse Piraten-Abenteuer» Страна: Германия Корея Южная
Жанр: мультфильм, семейный
Продолжительность: 01:17:02
Год выпуска: 2001
Перевод: Профессиональный (дублированный)
Русские субтитры: нет
Режиссёр: Герхард Хан, Энтони Пауэр / Gerhard Hahn, Anthony Power
Описание: Алекс — непредсказуем и храбр. Рыжий Макс — умен и образован. Калифакс — «добрый дух» Абрафаксов — лекарь и повар, хранитель мира и согласия между друзьями. Они неразлучны, им не страшны никакие опасности, они мчатся навстречу приключения…
В городском музее Абрафаксы находят золотую раковину, которая по всем признакам является частью древнего клада ацтеков. Когда они решают рассмотреть ее получше, вдруг начинает действовать таинственный механизм. Перед Абрафаксами открываются двери, за которыми наших героев ждет 18 век, приключения, пираты, Карибского моря и красавица Анна Бонни.
Качество: DVDRip
Формат: AVI
Видео кодек: XviD
Аудио кодек: AC3
Видео: 688x368 (1.87:1), 25 fps, XviD MPEG-4 ~2074 kbps avg, 0.33 bit/pixel
Аудио: 48 kHz, AC3 Dolby Digital, 3/2 (L,C,R,l,r) + LFE ch, ~448.00 kbps avg
Общее
Полное имя : Абрафакс.avi
Формат : AVI
Формат/Информация : Audio Video Interleave
Размер файла : 1,36 Гбайт
Продолжительность : 1 ч. 17 м.
Общий поток : 2532 Кбит/сек
Программа кодирования : VirtualDubMod 1.5.4.1 (build 2178/release)
Библиотека кодирования : VirtualDubMod build 2178/release
Видео
Идентификатор : 0
Формат : MPEG-4 Visual
Профиль формата : Advanced [email protected]
Параметр BVOP формата : 1
Параметр QPel формата : Нет
Параметр GMC формата : Без точки перехода
Параметр матрицы формата : Default (H.263)
Режим смешивания : Сжатый битовый поток
Идентификатор кодека : XVID
Идентификатор кодека/Подсказка : XviD
Продолжительность : 1 ч. 17 м.
Битрейт : 2075 Кбит/сек
Ширина : 688 пикселей
Высота : 368 пикселей
Соотношение сторон : 1,870
Частота кадров : 25,000 кадров/сек
Цветовое пространство : YUV
Субдискретизация насыщенности : 4:2:0
Битовая глубина : 8 бит
Тип развёртки : Прогрессивная
Метод сжатия : С потерями
Бит/(Пиксели*Кадры) : 0.328
Размер потока : 1,12 Гбайт (82%)
Библиотека кодирования : XviD 1.1.0 (UTC 2005-11-22)
Аудио
Идентификатор : 1
Формат : AC-3
Формат/Информация : Audio Coding 3
Расширение режима : CM (complete main)
Идентификатор кодека : 2000
Продолжительность : 1 ч. 16 м.
Вид битрейта : Постоянный
Битрейт : 448 Кбит/сек
Каналы : 6 каналов
Расположение каналов : Front: L C R, Side: L R, LFE
Частота : 48,0 КГц
Битовая глубина : 16 бит
Метод сжатия : С потерями
Размер потока : 246 Мбайт (18%)
Выравнивание : Соединение по промежуткам
Продолжительность промежутка : 40 мс. (1,00 видеокадр)
Время предзагрузки промежутка : 512 мс.






Download / Скачать

Хотите скачать бесплатно? Зарегистрируйтесь на сайте (ссылка на регистрацию). Pirat.ca - самый быстрый торрент трекер в рунете!

Как скачивать  ·   Что такое торрент  ·   Рейтинг и ограничения

Пост 12-Янв-2012 13:58 (спустя 3 дня)

Топик был перенесен из форума Мультипликация в форум Зарубежные полнометражные мультфильмы

CaptRom
 

Принц Датский

Корсар

Пост 13-Янв-2012 10:04 (спустя 4 дня)

[Q] 

спасибо,посмотрим!

_________________
[Профиль]  [ЛС] 

ursus

Морской Волк

Пост 12-Фев-2012 14:31 (спустя 30 дней)

[Q] 

[Профиль]  [ЛС] 

Iliaomsk

Морской Волк

127

Пост 17-Июн-2012 10:03 (спустя 4 месяца 4 дня)

[Q] 

СПС!
[Профиль]  [ЛС] 

shalonina

Гроза морей

Пост 26-Авг-2014 17:28 (спустя 2 года 2 месяца)

[Q] 

помогу с раздачей..............................................

_________________
[Профиль]  [ЛС] 
Показать сообщения:    
Ответить на тему

Текущее время: Сегодня 22:28

Часовой пояс: GMT + 4



Вы не можете начинать темы
Вы не можете отвечать на сообщения
Вы не можете редактировать свои сообщения
Вы не можете удалять свои сообщения
Вы не можете голосовать в опросах
Вы не можете прикреплять файлы к сообщениям
Вы не можете скачивать файлы

▼ Вниз