ML
     
  Уважаемый Гость!
Вы можете поддержать проект и зарегистрироваться у наших партнеров - онлайн-стратегия MyLands. При регистрации в игре Вы получите код, который сможете активировать после регистрации на pirat.ca и получить 1000 дублонов.

Ваш код:
8dcb839cf1b47e56d6dc42d17f26b3e4822e9aee
 
     

Смурфики: Рождественский гимн / The Smurfs: A Christmas Carol (Трой Квон / Troy Quane) [2011 г., мультфильм, короткометражка, DVDRip] (MVO)

Ответить на тему
 
Автор
Сообщение

Пост 08-Янв-2012 18:05

[Q] 

Ritchie

Лоцман

Смурфики: Рождественский гимн / The Smurfs: A Christmas Carol
    Год выпуска: 2011
    Мировая премьера: 9 сентября 2011
    Производство: США / Sony Pictures Animation, Sony Pictures Digital
    Жанр: мультфильм, короткометражка
    Продолжительность: 00:22:46
    Перевод: Профессиональный (многоголосый) [SkyeFilm]
    Оригинальный аудиопоток: Английский
    Режиссер: Трой Квон / Troy Quane
    В ролях: Джек Эйнджел, Фред Армизен, Хэнк Азария, Гэри Басараба, Джордж Лопез, Мелисса Штурм, Антон Ельчин
    Описание: Перед нами история Ворчуна. Зима, Рождество, Ёлка. Он же обычно надевает на её верхушку яркую звезду. Пироги. Подарки. Но Ворчун ворчит по любому поводу: «Ненавижу то, ненавижу это, ненавижу ёлку, ненавижу пирог!» Больше всего его задевают подарки — каждый год, уже несколько сот лет, ему (как и всем остальным Смурфам) дарят шапочки: одинаковые, ничем не отличающиеся друг от друга. А он хотел … полетать.
    Сэмпл, IMDB, КиноПоиск
    Источник/Качество: DVDRip
    Формат: AVI
    Видео кодек: XviD
    Аудио кодек: AC3
    Видео: 720x400 (1.80:1), 23.976 fps, XviD build 50 ~1762 kbps avg, 0.26 bit/pixel
    Аудио: 48 kHz, AC3 Dolby Digital, 2/0 (L,R) ch, ~192 kbps [RUS]
    Аудио #2: 48 kHz, AC3 Dolby Digital, 2/0 (L,R) ch, ~192 kbps [ENG]
    Субтитры: отсутствуют
    File: The.Smurfs.A.Christmas.Carol.2011.DVDRip.avi
    Filesize: 351.99 Mb ( 369 090 560 bytes )
    Play length: 00:22:46.366 (32760 frames)
    Subtitles: Not Present
    Video: 720x400 (1.80:1), 23.976 fps, XviD build 50 ~1762 kbps avg, 0.26 bit/pixel
    Audio #1: 48 kHz, AC3 Dolby Digital, 2/0 (L,R) ch, ~192 kbps
    Audio #2: 48 kHz, AC3 Dolby Digital, 2/0 (L,R) ch, ~192 kbps
    General
    Complete name : E:\Film\The.Smurfs.A.Christmas.Carol.2011.DVDRip.avi
    Format : AVI
    Format/Info : Audio Video Interleave
    File size : 352 MiB
    Duration : 22mn 46s
    Overall bit rate : 2 161 Kbps
    Writing application : VirtualDubMod 1.5.10.2 (build 2540/release)
    Writing library : VirtualDubMod build 2540/release
    Video
    ID : 0
    Format : MPEG-4 Visual
    Format profile : Advanced [email protected]
    Format settings, BVOP : 1
    Format settings, QPel : No
    Format settings, GMC : No warppoints
    Format settings, Matrix : Default (MPEG)
    Codec ID : XVID
    Codec ID/Hint : XviD
    Duration : 22mn 46s
    Bit rate : 1 763 Kbps
    Width : 720 pixels
    Height : 400 pixels
    Display aspect ratio : 16:9
    Frame rate : 23.976 fps
    Color space : YUV
    Chroma subsampling : 4:2:0
    Bit depth : 8 bits
    Scan type : Progressive
    Compression mode : Lossy
    Bits/(Pixel*Frame) : 0.255
    Stream size : 287 MiB (82%)
    Writing library : XviD 1.2.1 (UTC 2008-12-04)
    Audio #1
    ID : 1
    Format : AC-3
    Format/Info : Audio Coding 3
    Mode extension : CM (complete main)
    Codec ID : 2000
    Duration : 22mn 46s
    Bit rate mode : Constant
    Bit rate : 192 Kbps
    Channel(s) : 2 channels
    Channel positions : Front: L R
    Sampling rate : 48.0 KHz
    Bit depth : 16 bits
    Compression mode : Lossy
    Stream size : 31.3 MiB (9%)
    Alignment : Split accross interleaves
    Interleave, duration : 42 ms (1.00 video frame)
    Interleave, preload duration : 500 ms
    Audio #2
    ID : 2
    Format : AC-3
    Format/Info : Audio Coding 3
    Mode extension : CM (complete main)
    Codec ID : 2000
    Duration : 22mn 46s
    Bit rate mode : Constant
    Bit rate : 192 Kbps
    Channel(s) : 2 channels
    Channel positions : Front: L R
    Sampling rate : 48.0 KHz
    Bit depth : 16 bits
    Compression mode : Lossy
    Stream size : 31.3 MiB (9%)
    Alignment : Split accross interleaves
    Interleave, duration : 42 ms (1.00 video frame)
    Interleave, preload duration : 500 ms
Download / Скачать

Хотите скачать бесплатно? Зарегистрируйтесь на сайте (ссылка на регистрацию). Pirat.ca - самый быстрый торрент трекер в рунете!

Как скачивать  ·   Что такое торрент  ·   Рейтинг и ограничения



Последний раз редактировалось: Ritchie (2012-01-09 08:11), всего редактировалось 2 раз(а)

Пост 09-Янв-2012 11:08 (спустя 17 часов)

Топик был перенесен из форума Мультипликация в форум Новинки (HD|DVD|BD|TV|SAT|PDTV| - Rips)

Sirota
 

dimonpa

Гроза морей

Пост 09-Янв-2012 11:40 (спустя 17 часов)

[Q] 

Одобрямс !!! Спасибо !!!
[Профиль]  [ЛС] 

Voland57

Корсар

Пост 11-Июн-2012 15:27 (спустя 5 месяцев 2 дня)

[Q] 

[Профиль]  [ЛС] 
Показать сообщения:    
Ответить на тему

Текущее время: Сегодня 04:14

Часовой пояс: GMT + 4



Вы не можете начинать темы
Вы не можете отвечать на сообщения
Вы не можете редактировать свои сообщения
Вы не можете удалять свои сообщения
Вы не можете голосовать в опросах
Вы не можете прикреплять файлы к сообщениям
Вы не можете скачивать файлы

▼ Вниз