ML
     
  Уважаемый Гость!
Вы можете поддержать проект и зарегистрироваться у наших партнеров - онлайн-стратегия MyLands. При регистрации в игре Вы получите код, который сможете активировать после регистрации на pirat.ca и получить 1000 дублонов.

Ваш код:
a6d1ef7ff63e237add5a4c8b21d8aa937c5e9b4b
 
     

Роботы / Bola Kampung: The Movie (Лунг Ах, Чонг Ти Чуа / Loong Ah, Chong Tee Chua) [2013 г., Мультфильм, фантастика, приключения, DVDRip] Dub (Лицензия)

Ответить на тему
 
Автор
Сообщение

Пост 13-Мар-2014 22:48

[Q] 

Resident

-Роботы / Bola Kampung: The Movie-- Производство: Малайзия
Год выпуска: 2013 г.
Жанр: Мультфильм, фантастика, приключения
Продолжительность: 01:36:06
Мировая премьера: 21 марта 2013,
Российская премьера: 23 января 2014, «Top Film Distribution»
Дата выхода DVD: 11 марта 2014, «Lizard Cinema Trade», .
Перевод: Профессиональный (полное дублирование) [Лицензия]
Режиссер: Лунг Ах, Чонг Ти Чуа / Loong Ah, Chong Tee Chua-В ролях: Харрис Алиф, Айзат Амдан, Харун Салим Бачик, Стивен Боун, Эзлин, Дуглас Лим, Марша Милан Лондох, Азнил Хдж Хавави, Рахим Омар, Но Саллех...-Описание: Аманда — юная принцесса из видеоигры «Королевство Хилл». Когда её виртуальное царство подвергается атаке, она волшебным образом переносится в реальный мир, чтобы найти легендарного «Солнечного воина», который может спасти её дом.-
Качество видео: DVDRip
Контейнер: AVI
Видео кодек: XviD
Аудио кодек: AC3
Видео: 720x384 (1.85:1), 25.000 fps, XviD ~ 1713 kbps avg, 0.248 bit/pixel
Аудио: Rus: 48 kHz, Dolby AC3, 6 ch, 448 kbps Dub (Лицензия)
Cубтитры: отсутствуют
Общее
Полное имя : Roboty.2013.D.DVDRip.avi
Формат : AVI
Формат/Информация : Audio Video Interleave
Размер файла : 1,46 Гбайт
Продолжительность : 1 ч. 36 м.
Общий поток : 2170 Кбит/сек
Программа кодирования : VirtualDubMod 1.5.10.3 | (build 2550/release)
Библиотека кодирования : VirtualDubMod build 2550/release
Видео
Идентификатор : 0
Формат : MPEG-4 Visual
Профиль формата : Advanced [email protected]
Параметр BVOP формата : 1
Параметр QPel формата : Нет
Параметр GMC формата : Без точки перехода
Параметр матрицы формата : Выборочная
Идентификатор кодека : XVID
Идентификатор кодека/Подсказка : XviD
Продолжительность : 1 ч. 36 м.
Битрейт : 1713 Кбит/сек
Ширина : 720 пикселей
Высота : 384 пикселя
Соотношение сторон : 1,85:1
Частота кадров : 25,000 кадров/сек
Цветовое пространство : YUV
Субдискретизация насыщенности : 4:2:0
Битовая глубина : 8 бит
Тип развёртки : Прогрессивная
Метод сжатия : С потерями
Бит/(Пиксели*Кадры) : 0.248
Размер потока : 1,15 Гбайт (79%)
Библиотека кодирования : XviD 73
Аудио
Идентификатор : 1
Формат : AC-3
Формат/Информация : Audio Coding 3
Расширение режима : CM (complete main)
Параметр Endianness формата : Big
Идентификатор кодека : 2000
Продолжительность : 1 ч. 36 м.
Вид битрейта : Постоянный
Битрейт : 448 Кбит/сек
Каналы : 6 каналов
Расположение каналов : Front: L C R, Side: L R, LFE
Частота : 48,0 КГц
Битовая глубина : 16 бит
Метод сжатия : С потерями
Размер потока : 308 Мбайт (21%)
Выравнивание : Разделение по промежуткам
Продолжительность промежутка : 40 мс. (1,00 видеокадр)
Время предзагрузки промежутка : 500 мс.
Download / Скачать

Хотите скачать бесплатно? Зарегистрируйтесь на сайте (ссылка на регистрацию). Pirat.ca - самый быстрый торрент трекер в рунете!

Как скачивать  ·   Что такое торрент  ·   Рейтинг и ограничения

Пост 14-Мар-2014 04:07 (спустя 5 часов)

Топик был перенесен из форума Зарубежное Кино (Трюм) в форум Новинки (HD|DVD|BD| TV|SAT|PDTV| - Rips)
erchine
 

stas-burn

Корсар

Пост 14-Мар-2014 06:03 (спустя 7 часов)

[Q] 

Спасибо!!! !COOL!
[Профиль]  [ЛС] 

KoSkud

Флибустьер

Пост 14-Мар-2014 10:27 (спустя 4 часа)

[Q] 

угловатые персонажи на скринах,но заценим )) спасибо

_________________
Учись-играя,играя-учись
[Профиль]  [ЛС] 

polozm

Легенда

Пост 14-Мар-2014 10:30 (спустя 3 минуты)

[Q] 

Малайзия,Украина?????? ch bm

_________________
mac mini -2.0 GHz Intel Core i7/ 8 GB DDR3. /Intel HD 3000(512mb)OS X 10.9 Mavericks
[Профиль]  [ЛС] 

ягжин

Гроза морей

Пост 14-Мар-2014 16:48 (спустя 6 часов)

[Q] 

Спасибо!!! Лови бочку Заценим!
[Профиль]  [ЛС] 

srg078rus

Корсар

97

Пост 14-Мар-2014 17:09 (спустя 20 минут)

[Q] 

Спасибо!!!

_________________
[Профиль]  [ЛС] 

platon18

Гроза морей

Пост 14-Мар-2014 17:29 (спустя 20 минут)

[Q] 

так и быть, уговорили, гляну
[Профиль]  [ЛС] 

lexx

Корсар

129

Пост 15-Мар-2014 00:17 (спустя 6 часов)

[Q] 

малой понравился
[Профиль]  [ЛС] 

koolega77

Морской Волк

Пост 15-Мар-2014 11:49 (спустя 11 часов)

[Q] 

пацаны посмотрят-отпишусь
[Профиль]  [ЛС] 

Alex Yz

Гроза морей

Пост 15-Мар-2014 14:50 (спустя 3 часа)

[Q] 

Спасибо!!! Доча оценит.
[Профиль]  [ЛС] 

Dmitriy1881

Корсар

Пост 15-Мар-2014 17:51 (спустя 3 часа)

[Q] 

спасибо, сейчас качнем
[Профиль]  [ЛС] 

sergLyghin

Корсар

162

Пост 15-Мар-2014 21:43 (спустя 3 часа)

[Q] 

ну что стоит качать или нет?
[Профиль]  [ЛС] 

kudrjavy

Флибустьер

Пост 18-Мар-2014 01:34 (спустя 2 дня 3 часа)

[Q] 

Спасибо!!! Спасибо!!! дети ждали))))

_________________
Девушки-как печеньки: ломаются,пока не намокнут...
[Профиль]  [ЛС] 

Jek@

Легенда

Пост 18-Мар-2014 03:29 (спустя 1 час 54 минуты)

[Q] 

Спасибо!!! .
[Профиль]  [ЛС] 

Ganjik

Пост 19-Мар-2014 09:15 (спустя 1 день 5 часов)

[Q] 

как всегда, кроме "спасибо", "давно ждал" и "сейчас гляну" ни слова о том, как мульт. поражают такие бестолковщины.
[Профиль]  [ЛС] 

GnomKa

Шкипер

Пост 19-Мар-2014 14:54 (спустя 5 часов)

[Q] 

глянем...

_________________
Человек человеку волк, а зомби зомби зомби
[Профиль]  [ЛС] 

lo.oktosky

Морской Волк

Пост 23-Мар-2014 19:00 (спустя 4 дня)

[Q] 

рисовка хоть и малазийская, а каконы американские.
деткам увлекательно наверное. если не совсем юным только.
Раздающему респект!
[Профиль]  [ЛС] 
Показать сообщения:    
Ответить на тему

Текущее время: Сегодня 13:31

Часовой пояс: GMT + 4



Вы не можете начинать темы
Вы не можете отвечать на сообщения
Вы не можете редактировать свои сообщения
Вы не можете удалять свои сообщения
Вы не можете голосовать в опросах
Вы не можете прикреплять файлы к сообщениям
Вы не можете скачивать файлы

▼ Вниз