ML
     
  Уважаемый Гость!
Вы можете поддержать проект и зарегистрироваться у наших партнеров - онлайн-стратегия MyLands. При регистрации в игре Вы получите код, который сможете активировать после регистрации на pirat.ca и получить 1000 дублонов.

Ваш код:
47bfc18b89c74e4ae0d974e9b6943639e2bff08e
 
     

Скуби-Ду! Тайна рестлмании / Scooby-Doo! WrestleMania Mystery (Майкл Райан / Michael Ryan) [2014 г., мультфильм, HDRip] VO [Hronos] + Original (Eng)

Ответить на тему
 
Автор
Сообщение

Пост 17-Мар-2014 21:38

[Q] 

LPPI

-Скуби-Ду! Тайна рестлмании / Scooby-Doo! WrestleMania Mystery- Производство: США , WWE Studios, Warner Bros. Feature Animation
Режиссер: Майкл Райан / Michael Ryan
Жанр: мультфильм
Год выпуска: 2014 г.
Продолжительность: 01:23:41
Мировая премьера: 3 апреля 2014
Перевод: Любительский (одноголосый, закадровый) [Hronos]
Оригинальный аудиопоток: английский
Роли озвучивали: Мэттью Лиллард, Джон Ди Маджио, Грэй ДеЛисл, Фрэнк Уэлкер, Пол Левески, Трэвис Уиллингэм, Глен Джейкобс, Майк Мизанин, Минди Кон, Винс МакМахон-Описание:-Новый искрометный мультфильм «Скуби-Ду – Тайна рестлмании» опять готов порадовать своих преданных зрителей. Чем же так уникален очередной захватывающий эпизод мультфильма про очаровательную собаку Скуби-Ду? А тем, что именно в этой части Вас ждут очень увлекательные путешествия наших главных героев в логово рестлмании. Что же такое Рестмалния – это театральные бои на ринге, когда бойцы изображают драку, хотя на самом деле – это лишь одна большая постановка, в этих схватках почти нет ничего опасного. Будут ли они сами участвовать в постановочных боях или же все будет намного серьезнее? Как и все остальные части, эта не стала исключением, и все также приковывает своих зрителей к экранам. Конечно, этот мультфильм наиболее понравится тем, кто постоянно следит за Скуби-Ду и за тем, куда он постоянно попадает. В этом эпизоде будет много острых шуток и комичных ситуаций, в которые герои попадают почти каждую минуту. И поверьте – ваши ожидания себя обязательно оправдают, разве может кому-то не понравится очаровательный Скуби-Ду?- -Качество видео: HDRip
Контейнер: AVI
Видео кодек: XviD
Аудио кодек: AC3, MP3
Видео: XviD MPEG-4, 720x400 (1.80:1), 1883 kbps avg, 23.976 fps, 0.27 bit/pixel
Аудио: Русский; AC3 Dolby Digital, 320 kbps, 2 ch, 48 kHz
Аудио #2: Английский; MP3, 128.00 kbps avg, 2 ch, 48 kHz
Cубтитры: отсутствуют
General
Complete name : C:\Users\Admin\Desktop\Scooby.Doo.WrestleMania.Mystery.2014.L1.HDRip.1400Mb.avi
Format : AVI
Format/Info : Audio Video Interleave
File size : 1.37 GiB
Duration : 1h 23mn
Overall bit rate : 2 346 Kbps
Writing application : VirtualDubMod 1.5.10.3 | www.virtualdub-fr.org || (build 2550/release)
Writing library : VirtualDubMod build 2550/release
Video
ID : 0
Format : MPEG-4 Visual
Format profile : Advanced [email protected]
Format settings, BVOP : 2
Format settings, QPel : No
Format settings, GMC : No warppoints
Format settings, Matrix : Default (H.263)
Muxing mode : Packed bitstream
Codec ID : XVID
Codec ID/Hint : XviD
Duration : 1h 23mn
Bit rate : 1 884 Kbps
Width : 720 pixels
Height : 400 pixels
Display aspect ratio : 16:9
Frame rate : 23.976 fps
Color space : YUV
Chroma subsampling : 4:2:0
Bit depth : 8 bits
Scan type : Progressive
Compression mode : Lossy
Bits/(Pixel*Frame) : 0.273
Stream size : 1.10 GiB (80%)
Writing library : XviD 64
Audio #1
ID : 1
Format : AC-3
Format/Info : Audio Coding 3
Mode extension : CM (complete main)
Format settings, Endianness : Big
Codec ID : 2000
Duration : 1h 23mn
Bit rate mode : Constant
Bit rate : 320 Kbps
Channel(s) : 2 channels
Channel positions : Front: L R
Sampling rate : 48.0 KHz
Bit depth : 16 bits
Compression mode : Lossy
Stream size : 192 MiB (14%)
Alignment : Split accross interleaves
Interleave, duration : 42 ms (1.00 video frame)
Interleave, preload duration : 500 ms
Audio #2
ID : 2
Format : MPEG Audio
Format version : Version 1
Format profile : Layer 3
Codec ID : 55
Codec ID/Hint : MP3
Duration : 1h 23mn
Bit rate mode : Constant
Bit rate : 128 Kbps
Channel(s) : 2 channels
Sampling rate : 48.0 KHz
Compression mode : Lossy
Stream size : 76.6 MiB (5%)
Alignment : Aligned on interleaves
Interleave, duration : 42 ms (1.00 video frame)
Interleave, preload duration : 504 ms
Writing library : LAME3.99r
Encoding settings : -m s -V 4 -q 2 -lowpass 17 -b 128
Download / Скачать

Хотите скачать бесплатно? Зарегистрируйтесь на сайте (ссылка на регистрацию). Pirat.ca - самый быстрый торрент трекер в рунете!

Как скачивать  ·   Что такое торрент  ·   Рейтинг и ограничения

Alex Yz

Гроза морей

Пост 18-Мар-2014 14:27 (спустя 16 часов)

[Q] 

Спасибо!!! Спасибо!!! Вы лучшие!
[Профиль]  [ЛС] 

герман-исаев

Мичман

Пост 27-Мар-2014 21:51 (спустя 9 дней)

[Q] 

Почему на англ.яз))))))))))))
[Профиль]  [ЛС] 
Показать сообщения:    
Ответить на тему

Текущее время: Сегодня 07:00

Часовой пояс: GMT + 4



Вы не можете начинать темы
Вы не можете отвечать на сообщения
Вы не можете редактировать свои сообщения
Вы не можете удалять свои сообщения
Вы не можете голосовать в опросах
Вы не можете прикреплять файлы к сообщениям
Вы не можете скачивать файлы

▼ Вниз