ML
     
  Уважаемый Гость!
Вы можете поддержать проект и зарегистрироваться у наших партнеров - онлайн-стратегия MyLands. При регистрации в игре Вы получите код, который сможете активировать после регистрации на pirat.ca и получить 1000 дублонов.

Ваш код:
11f49771fdf057c9d51610e4a0925c3b46ddb655
 
     

Властелины времени / Les maitres du temps (Рене Лалу / René Laloux) [1982 г., приключения, фантастика, DVDRip] Dub

Ответить на тему
 
Автор
Сообщение

Пост 28-Мар-2014 14:11

[Q] 

Мархуз

-Властелины времени / Les maitres du temps -- Производство: Франция, Великобритания, Германия (ФРГ), Швейцария, Венгрия
Режиссер: Рене Лалу / René Laloux
Жанр: приключения, фантастика
Год выпуска: 1982 г.
Продолжительность: 01:15:09
Перевод: Профессиональный (полное дублирование)
Роли озвучивали: Вадим Спиридонов, Всеволод Ларионов, Ольга Гаспарова, Алексей Инжеватов, Мария Виноградова-Описание: Этот полнометражный мультфильм был снят по роману «Сирота с Пердида» французского писателя-фантаста Стефана Вуля. Пьель, 7-ми летний мальчик попал в пустыню планеты Пердиде, уцелев после атаки гигантских ос. На вызов о помощи откликнулся друг его отца Джаффар. Он держит контакт с ребенком и спешит через пространство к Пердиде… Джаффар еще не знает, что ему придется столкнуться с Властелинами Времени, и спасать нужно будет не только ребенка, но и его родную планету…-Сэмпл
Качество видео: DVDRip
Контейнер: AVI
Видео кодек: XviD
Аудио кодек: MP3
Видео: 656x384; 745 kbps; 25 fps; 0.118 bit/pixel
Аудио: 128.00 kbps; 2 ch; 44.1 kHz
Cубтитры: отсутствуют
1982 год - Премия за лучший детский фильм на фестивале Fantafestival.
General
Complete name : E:\Torrent\Vlastelin_vremeni_[Pirat.ca].torren.avi
Format : AVI
Format/Info : Audio Video Interleave
File size : 474 MiB
Duration : 1h 15mn
Overall bit rate : 882 Kbps
Writing library : VirtualDub build 35390/release
Video
ID : 0
Format : MPEG-4 Visual
Format profile : Advanced [email protected]
Format settings, BVOP : 2
Format settings, QPel : No
Format settings, GMC : No warppoints
Format settings, Matrix : Default (H.263)
Muxing mode : Packed bitstream
Codec ID : XVID
Codec ID/Hint : XviD
Duration : 1h 15mn
Bit rate : 745 Kbps
Width : 656 pixels
Height : 384 pixels
Display aspect ratio : 1.708
Frame rate : 25.000 fps
Color space : YUV
Chroma subsampling : 4:2:0
Bit depth : 8 bits
Scan type : Progressive
Compression mode : Lossy
Bits/(Pixel*Frame) : 0.118
Stream size : 400 MiB (84%)
Writing library : XviD 64
Audio
ID : 1
Format : MPEG Audio
Format version : Version 1
Format profile : Layer 3
Mode : Joint stereo
Mode extension : MS Stereo
Codec ID : 55
Codec ID/Hint : MP3
Duration : 1h 15mn
Bit rate mode : Constant
Bit rate : 128 Kbps
Channel(s) : 2 channels
Sampling rate : 44.1 KHz
Compression mode : Lossy
Stream size : 68.8 MiB (15%)
Alignment : Split accross interleaves
Interleave, duration : 40 ms (1.00 video frame)
Interleave, preload duration : 500 ms
Раздача с 15.00 до 3.30 (время московское)
Download / Скачать

Хотите скачать бесплатно? Зарегистрируйтесь на сайте (ссылка на регистрацию). Pirat.ca - самый быстрый торрент трекер в рунете!

Как скачивать  ·   Что такое торрент  ·   Рейтинг и ограничения



Последний раз редактировалось: Мархуз (2014-09-26 01:15), всего редактировалось 1 раз
Показать сообщения:    
Ответить на тему

Текущее время: Сегодня 03:11

Часовой пояс: GMT + 4



Вы не можете начинать темы
Вы не можете отвечать на сообщения
Вы не можете редактировать свои сообщения
Вы не можете удалять свои сообщения
Вы не можете голосовать в опросах
Вы не можете прикреплять файлы к сообщениям
Вы не можете скачивать файлы

▼ Вниз