ML
     
  Уважаемый Гость!
Вы можете поддержать проект и зарегистрироваться у наших партнеров - онлайн-стратегия MyLands. При регистрации в игре Вы получите код, который сможете активировать после регистрации на pirat.ca и получить 1000 дублонов.

Ваш код:
8dcb839cf1b47e56d6dc42d17f26b3e4822e9aee
 
     

Корабль-призрак / Soratobu Yuureisen (Хироши Икеда / Hiroshi Ikeda) [1969 г., фантастика, приключения, VHSRip] Dub

Ответить на тему
 
Автор
Сообщение

Пост 28-Мар-2014 15:07

[Q] 

Мархуз

-Корабль-призрак / Soratobu Yuureisen-- Производство: Япония «Toei Animation Company»
Режиссер: Хироши Икеда / Hiroshi Ikeda
Жанр: фантастика, приключения
Год выпуска: 1969 г.
Продолжительность: 00:53:35
Перевод: Профессиональный (полное дублирование)
Роли озвучивали: Алексей Консовский, Мария Виноградова, Ольга Громова, Владимир Ферапонтов, Владимир Кенигсон, Роза Макагонова-Описание: Многие годы в океане бесследно пропадают корабли. Люди, чудом оставшиеся в живых, вспоминают что незадолго до катастрофы они видели таинственный Корабль-Призрак… Гигантский робот Голем разрушающий кварталы Токио, объявляет себя посланцем Корабля-Призрака… На улицах города, у всех на глазах исчезают люди. Все считают, что это козни Корабля-Призрака… И только у отважного мальчика Хаято есть повод сомневаться в этом. Он готов отправиться в рискованное приключение, чтобы узнать тайну Корабля-Призрака и его загадочного капитана!-Сэмпл
Качество видео: VHSRip
Контейнер: AVI
Видео кодек: XviD
Аудио кодек: AC3
Видео: 688x384; 1612 kbps; 25 fps; 0.244 bit/pixel
Аудио: 192.00 kbps; 2 ch; 48 kHz
Cубтитры: отсутствуют
Общее
Полное имя : E:\Torrent\Korabl_prizrak_[Pirat.ca].torrent.avi
Формат : AVI
Формат/Информация : Audio Video Interleave
Размер файла : 695 Мбайт
Продолжительность : 53 м.
Общий поток : 1814 Кбит/сек
Название фильма : Корабль-призрак / Sora tobu yureisen (1969)
Режиссёр : bora86bora
Программа кодирования : VirtualDubMod 1.5.10.3 | www.virtualdub-fr.org || (build 2550/release)
Библиотека кодирования : VirtualDubMod build 2550/release
Правообладатель : RG Multfilmy / pirat.ca
Видео
Идентификатор : 0
Формат : MPEG-4 Visual
Профиль формата : Advanced [email protected]
Параметр BVOP формата : 1
Параметр QPel формата : Нет
Параметр GMC формата : Без точки перехода
Параметр матрицы формата : Выборочная
Идентификатор кодека : XVID
Идентификатор кодека/Подсказка : XviD
Продолжительность : 53 м.
Битрейт : 1612 Кбит/сек
Ширина : 688 пикселей
Высота : 384 пикселя
Соотношение сторон : 16:9
Частота кадров : 25,000 кадров/сек
Цветовое пространство : YUV
Субдискретизация насыщенности : 4:2:0
Битовая глубина : 8 бит
Тип развёртки : Прогрессивная
Метод сжатия : С потерями
Бит/(Пиксели*Кадры) : 0.244
Размер потока : 618 Мбайт (89%)
Библиотека кодирования : XviD 65
Аудио
Идентификатор : 1
Формат : AC-3
Формат/Информация : Audio Coding 3
Расширение режима : CM (complete main)
Параметр Endianness формата : Big
Идентификатор кодека : 2000
Продолжительность : 53 м.
Вид битрейта : Постоянный
Битрейт : 192 Кбит/сек
Каналы : 2 канала
Расположение каналов : Front: L R
Частота : 48,0 КГц
Битовая глубина : 16 бит
Метод сжатия : С потерями
Размер потока : 73,6 Мбайт (11%)
Выравнивание : Разделение по промежуткам
Продолжительность промежутка : 40 мс. (1,00 видеокадр)
Время предзагрузки промежутка : 500 мс.
Раздача с 15.00 до 3.30 (время московское)
Download / Скачать

Хотите скачать бесплатно? Зарегистрируйтесь на сайте (ссылка на регистрацию). Pirat.ca - самый быстрый торрент трекер в рунете!

Как скачивать  ·   Что такое торрент  ·   Рейтинг и ограничения

Пост 28-Мар-2014 20:12 (спустя 5 часов)

Топик был перенесен из форума Мультфильмы (Трюм) в форум Зарубежные полнометражные мультфильмы
erchine
 

demon-292

Корсар

Пост 28-Мар-2014 20:54 (спустя 5 часов)

[Q] 

Спасибо, смотрел ещё в детстве! Очень нравился, обновлю впечатления! Автору респект!!!
[Профиль]  [ЛС] 

Мархуз ®

4507

Пост 28-Мар-2014 21:27 (спустя 32 минуты)

[Q] 

demon-292, пожалуйста az я тоже в детстве балдел от него ay

_________________

Счастье для всех, даром, и пусть никто не уйдёт обиженный
[Профиль]  [ЛС] 
Показать сообщения:    
Ответить на тему

Текущее время: Сегодня 04:13

Часовой пояс: GMT + 4



Вы не можете начинать темы
Вы не можете отвечать на сообщения
Вы не можете редактировать свои сообщения
Вы не можете удалять свои сообщения
Вы не можете голосовать в опросах
Вы не можете прикреплять файлы к сообщениям
Вы не можете скачивать файлы

▼ Вниз