ML
     
  Уважаемый Гость!
Вы можете поддержать проект и зарегистрироваться у наших партнеров - онлайн-стратегия MyLands. При регистрации в игре Вы получите код, который сможете активировать после регистрации на pirat.ca и получить 1000 дублонов.

Ваш код:
6f9ab67d502902cc72a06c406977ddb589b7f39d
 
     

Феи: Загадка пиратского острова / The Pirate Fairy (Пегги Холмс / Peggy Holmes) [2014 г., мультфильм, фэнтези, детский, приключения, BDRip, 720p] Dub [Чистый звук] + Original (Eng) + Sub (Eng, Fre, Spa)

Ответить на тему
 
Автор
Сообщение

Пост 28-Мар-2014 20:27

[Q] 

LPPI

-Феи: Загадка пиратского острова / The Pirate Fairy- Производство: США , DisneyToon Studios, Prana Studios
Жанр: мультфильм, фэнтези, детский, приключения
Год выпуска: 2014 г.
Продолжительность: 01:18:05
Мировая премьера: 13 февраля 2014
Российская премьера: 13 февраля 2014, «WDSSPR»
Перевод: Профессиональный (полное дублирование) [Чистый звук]
Оригинальный аудиопоток: английский-Режиссер: Пегги Холмс / Peggy Holmes
Роли озвучивали: Кристина Хендрикс, Мэй Уитман, Том Хиддлстон, Памела Адлон, Анджела Бартис, Меган Хилти, Люси Лью, Рэйвен, Джим Каммингс, Кевин Майкл Ричардсон-Описание:-История о Зарине, смышленой и амбициозной фее, собирающей пыльцу растений. Все начинается с того, что она похищает волшебную пыльцу фей…- -Качество видео: BDRip
Контейнер: MKV
Стандарт разрешения: 720p
Видео кодек: AVC
Аудио кодек: AC3
Видео: AVC, 1280x720 (16:9), 3224 Kbps, 23.976 fps, 0.146 bit/pixel
Аудио: Русский: AC3, 384 Kbps, 2 ch, 48.0 KHz [Dub]
Аудио #2: Английский: DTS, 1509 Kbps, 6 ch, 48.0 KHz [Original]
Cубтитры: Английские, Французские, Испанские
Код:
General
Unique ID                                : 252992855638489267728456774199489717016 (0xBE54A6D1D0994102BA9393888D65E318)
Complete name                            : D:\Fei.Zagadka.Pitatskogo.Ostrova.2014.D.BDRip.720p.mkv
Format                                   : Matroska
Format version                           : Version 4 / Version 2
File size                                : 2.85 GiB
Duration                                 : 1h 18mn
Overall bit rate                         : 5 220 Kbps
Encoded date                             : UTC 2014-03-27 12:51:42
Writing application                      : mkvmerge v6.5.0 ('Isn't she lovely') built on Oct 20 2013 12:50:05
Writing library                          : libebml v1.3.0 + libmatroska v1.4.1
Video
ID                                       : 1
Format                                   : AVC
Format/Info                              : Advanced Video Codec
Format profile                           : [email protected]
Format settings, CABAC                   : Yes
Format settings, ReFrames                : 5 frames
Codec ID                                 : V_MPEG4/ISO/AVC
Duration                                 : 1h 18mn
Bit rate                                 : 3 224 Kbps
Width                                    : 1 280 pixels
Height                                   : 720 pixels
Display aspect ratio                     : 16:9
Frame rate mode                          : Constant
Frame rate                               : 23.976 fps
Color space                              : YUV
Chroma subsampling                       : 4:2:0
Bit depth                                : 8 bits
Scan type                                : Progressive
Bits/(Pixel*Frame)                       : 0.146
Stream size                              : 1.76 GiB (62%)
Language                                 : English
Default                                  : Yes
Forced                                   : No
Audio #1
ID                                       : 2
Format                                   : AC-3
Format/Info                              : Audio Coding 3
Mode extension                           : CM (complete main)
Format settings, Endianness              : Big
Codec ID                                 : A_AC3
Duration                                 : 1h 18mn
Bit rate mode                            : Constant
Bit rate                                 : 384 Kbps
Channel(s)                               : 2 channels
Channel positions                        : Front: L R
Sampling rate                            : 48.0 KHz
Bit depth                                : 16 bits
Compression mode                         : Lossy
Stream size                              : 214 MiB (7%)
Default                                  : Yes
Forced                                   : No
Audio #2
ID                                       : 3
Format                                   : DTS
Format/Info                              : Digital Theater Systems
Mode                                     : 16
Format settings, Endianness              : Big
Codec ID                                 : A_DTS
Duration                                 : 1h 18mn
Bit rate mode                            : Constant
Bit rate                                 : 1 509 Kbps
Channel(s)                               : 6 channels
Channel positions                        : Front: L C R, Side: L R, LFE
Sampling rate                            : 48.0 KHz
Bit depth                                : 24 bits
Compression mode                         : Lossy
Stream size                              : 843 MiB (29%)
Language                                 : English
Default                                  : No
Forced                                   : No
Text #1
ID                                       : 4
Format                                   : UTF-8
Codec ID                                 : S_TEXT/UTF8
Codec ID/Info                            : UTF-8 Plain Text
Language                                 : English
Default                                  : No
Forced                                   : No
Text #2
ID                                       : 5
Format                                   : UTF-8
Codec ID                                 : S_TEXT/UTF8
Codec ID/Info                            : UTF-8 Plain Text
Language                                 : English
Default                                  : No
Forced                                   : No
Text #3
ID                                       : 6
Format                                   : UTF-8
Codec ID                                 : S_TEXT/UTF8
Codec ID/Info                            : UTF-8 Plain Text
Language                                 : French
Default                                  : No
Forced                                   : No
Text #4
ID                                       : 7
Format                                   : UTF-8
Codec ID                                 : S_TEXT/UTF8
Codec ID/Info                            : UTF-8 Plain Text
Language                                 : Spanish
Default                                  : No
Forced                                   : No
Menu
00:00:00.000                             : en:00:00:00.000
00:04:05.996                             : en:00:04:05.996
00:07:36.665                             : en:00:07:36.665
00:14:32.747                             : en:00:14:32.747
00:20:17.925                             : en:00:20:17.925
00:28:10.814                             : en:00:28:10.814
00:33:03.607                             : en:00:33:03.607
00:40:12.201                             : en:00:40:12.201
00:45:53.334                             : en:00:45:53.334
00:53:51.520                             : en:00:53:51.520
01:03:41.609                             : en:01:03:41.609
01:08:40.742                             : en:01:08:40.742
Download / Скачать

Хотите скачать бесплатно? Зарегистрируйтесь на сайте (ссылка на регистрацию). Pirat.ca - самый быстрый торрент трекер в рунете!

Как скачивать  ·   Что такое торрент  ·   Рейтинг и ограничения

airat85

Корсар

Пост 28-Мар-2014 22:26 (спустя 1 час 59 минут)

[Q] 

почему бы не посмотреть хороший мультфильм))) Лови бочку
[Профиль]  [ЛС] 

dred1980

Лоцман

66

Пост 28-Мар-2014 23:47 (спустя 1 час 20 минут)

[Q] 

Скачаем. Дочка будет рада. Спасибо! Лови бочку
[Профиль]  [ЛС] 

sergena

Морской Волк

Пост 29-Мар-2014 10:34 (спустя 10 часов)

[Q] 

хороший мультик
[Профиль]  [ЛС] 

sk68

Шкипер

Пост 29-Мар-2014 12:30 (спустя 1 час 55 минут)

[Q] 

спасибо дочка давно просила Лови бочку Автору респект!!!
[Профиль]  [ЛС] 

Dypa4ek

Морской Волк

Пост 29-Мар-2014 12:59 (спустя 28 минут)

[Q] 

Спасибо!!! посмотрим!
Лови бочку

_________________
[Профиль]  [ЛС] 

левка

Корсар

Пост 29-Мар-2014 13:25 (спустя 26 минут)

[Q] 

LPPI, Супер!
[Профиль]  [ЛС] 

Ghostts

Морской Волк

Пост 29-Мар-2014 23:53 (спустя 10 часов)

[Q] 

Всем Пиратам доброго времени суток!
Автору респект!!!
[Профиль]  [ЛС] 

sergLyghin

Корсар

162

Пост 30-Мар-2014 08:57 (спустя 9 часов)

[Q] 

Быстро он вышел что даже рекламы по телевизору не было
[Профиль]  [ЛС] 

Совунья

Морской Волк

Пост 31-Мар-2014 11:11 (спустя 1 день 2 часа)

[Q] 

Давно ждала, спасибо :) Вечером посмотрим Раздающему респект!

_________________
Я верю в честность Президента, и в неподкупность постовых! В заботу банка о клиентах. В вампиров верю, в домовых.
[Профиль]  [ЛС] 

sergej 1340

Морской Волк

Пост 31-Мар-2014 17:07 (спустя 5 часов)

[Q] 

хороший мультфильм!спасибо!
[Профиль]  [ЛС] 

Voldemartop

Легенда

1547

Пост 19-Май-2014 21:33 (спустя 1 месяц 19 дней)

[Q] 

Благо Дарю LPPI!!!
Автору респект!!! +

_________________


МОИ РАЗДАЧИ
[Профиль]  [ЛС] 

Pro100ZLOY

Штурман

Пост 17-Дек-2014 20:14 (спустя 6 месяцев 28 дней)

[Q] 

спасибо Автору респект!!!
[Профиль]  [ЛС] 

erchine

44805

Пост 16-Сен-2016 08:35 (спустя 1 год 8 месяцев)

[Q] 

Феи: Загадка Пиратского Острова / The Pirate Fairy (Пегги Холмс / Peggy Holmes) [2014, США, мультфильм, фэнтези, детский, приключения, BDRip-AVC] Dub [лицензия] + Original (Eng)
[Профиль]  [ЛС] 
Показать сообщения:    
Ответить на тему

Текущее время: Сегодня 16:31

Часовой пояс: GMT + 4



Вы не можете начинать темы
Вы не можете отвечать на сообщения
Вы не можете редактировать свои сообщения
Вы не можете удалять свои сообщения
Вы не можете голосовать в опросах
Вы не можете прикреплять файлы к сообщениям
Вы не можете скачивать файлы

▼ Вниз