ML
     
  Уважаемый Гость!
Вы можете поддержать проект и зарегистрироваться у наших партнеров - онлайн-стратегия MyLands. При регистрации в игре Вы получите код, который сможете активировать после регистрации на pirat.ca и получить 1000 дублонов.

Ваш код:
34514219cfad5497a1822ecc1269bea77988f9aa
 
     

Рождественское приключение / Abominable Christmas (Чад Ван Де Keeрe / Chad Van De Keere) [2012 г., мультфильм, семейный, DVDRip] Dub [Канал "Дисней"]

Ответить на тему
 
Автор
Сообщение

Пост 08-Апр-2014 13:59

[Q] 

LPPI

-Рождественское приключение / Abominable Christmas- Производство: США / Kickstart Productions
Жанр: мультфильм, семейный
Год выпуска: 2012 г.
Продолжительность: 00:43:37
Мировая премьера: 24 декабря 2012
Перевод: Профессиональный (полное дублирование) [Канал "Дисней"]-Режиссер: Чад Ван Де Кир / Chad Van De Keere
В ролях: Изабелла Акрес, Дрэйк Белл, Эмилио Эстевес, Нолан Гоулд, Мэттью Лиллард, Рэй Лиотта, Джейн Линч, Эриель Винтер
Роли дублировали: Людмила Иванова, Михаил Тихонов, Жанна Никонова, Владимир Рыбальченко, Людмила Ильина-Описание:-В Рождество нет ничего невозможного! Особенно, если ты снежный человек! Веселая семейка мохнатых созданий живет высоко в горах и собирается спуститься в город, где люди готовятся к празднованию самого сказочного праздника в году! Они не сомневаются, что жители примут пушистых гостей радушно, но как на самом деле развернутся события?-Сэмпл IMDB КиноПоиск-Качество видео: DVDRip
Контейнер: AVI
Видео кодек: XviD
Аудио кодек: MP3
Видео: 720x400 (1.80:1), 23.976 fps, XviD build 73 ~2249 kbps avg, 0.33 bit/pixel
Аудио: 48 kHz, MPEG Layer 3, 2 ch, ~128.00 kbps avg
Cубтитры: отсутствуют
Код:
General
Complete name                            : D:\Abominable.Christmas.2012.D.DVDRip.avi
Format                                   : AVI
Format/Info                              : Audio Video Interleave
File size                                : 745 MiB
Duration                                 : 43mn 37s
Overall bit rate                         : 2 387 Kbps
Movie name                               : Abominable Christmas
Genre                                    : Family
Writing application                      : VirtualDubMod 1.5.10.3 | www.virtualdub-fr.org || (build 2550/release)
Original source form/Name                : Cartoon
Video
ID                                       : 0
Format                                   : MPEG-4 Visual
Format profile                           : Advanced [email protected]
Format settings, BVOP                    : 1
Format settings, QPel                    : Yes
Format settings, GMC                     : No warppoints
Format settings, Matrix                  : Custom
Codec ID                                 : XVID
Codec ID/Hint                            : XviD
Duration                                 : 43mn 37s
Bit rate                                 : 2 249 Kbps
Width                                    : 720 pixels
Height                                   : 400 pixels
Display aspect ratio                     : 16:9
Frame rate                               : 23.976 fps
Color space                              : YUV
Chroma subsampling                       : 4:2:0
Bit depth                                : 8 bits
Scan type                                : Progressive
Compression mode                         : Lossy
Bits/(Pixel*Frame)                       : 0.326
Stream size                              : 702 MiB (94%)
Writing library                          : XviD 73
Audio
ID                                       : 1
Format                                   : MPEG Audio
Format version                           : Version 1
Format profile                           : Layer 3
Codec ID                                 : 55
Codec ID/Hint                            : MP3
Duration                                 : 43mn 37s
Bit rate mode                            : Constant
Bit rate                                 : 128 Kbps
Channel(s)                               : 2 channels
Sampling rate                            : 48.0 KHz
Compression mode                         : Lossy
Stream size                              : 39.9 MiB (5%)
Alignment                                : Aligned on interleaves
Interleave, duration                     : 42 ms (1.00 video frame)
Interleave, preload duration             : 504 ms
Writing library                          : LAME3.99r
Encoding settings                        : -m s -V 4 -q 2 -lowpass 17 -b 128
Download / Скачать

Хотите скачать бесплатно? Зарегистрируйтесь на сайте (ссылка на регистрацию). Pirat.ca - самый быстрый торрент трекер в рунете!

Как скачивать  ·   Что такое торрент  ·   Рейтинг и ограничения

Показать сообщения:    
Ответить на тему

Текущее время: Сегодня 07:55

Часовой пояс: GMT + 4



Вы не можете начинать темы
Вы не можете отвечать на сообщения
Вы не можете редактировать свои сообщения
Вы не можете удалять свои сообщения
Вы не можете голосовать в опросах
Вы не можете прикреплять файлы к сообщениям
Вы не можете скачивать файлы

▼ Вниз