ML
     
  Уважаемый Гость!
Вы можете поддержать проект и зарегистрироваться у наших партнеров - онлайн-стратегия MyLands. При регистрации в игре Вы получите код, который сможете активировать после регистрации на pirat.ca и получить 1000 дублонов.

Ваш код:
5af7de75d3db09b6a37bc8bab71b0e87ccde73d6
 
     

Спирит: Душа прерий / Spirit: Stallion of the Cimarron (Келли Эсбёри / Kelly Asbury, Лорна Кук / Lorna Cook) [2002 г., мультфильм, мелодрама, комедия, приключения, семейный, вестерн, BDRip, 720p] Dub + MVO + Sub (Rus, Eng)

Ответить на тему
 
Автор
Сообщение

Пост 17-Апр-2014 13:57

[Q] 

LPPI

-Спирит: Душа прерий / Spirit: Stallion of the Cimarron-«Some legends can never be tamed»- Производство: США / DreamWorks Animation, DreamWorks SKG
Жанр: мультфильм, мелодрама, комедия, приключения, семейный, вестерн
Год выпуска: 2002 г.
Продолжительность: 01:23:29
Мировая премьера: 18 мая 2002
Российская премьера: 31 октября 2002, «Ист-Вест»
Перевод: Профессиональный (полное дублирование)
Перевод 2: Профессиональный (многоголосый, закадровый)-Режиссер: Келли Эсбёри / Kelly Asbury, Лорна Кук / Lorna Cook
Роли озвучивали: Мэтт Дэймон, Джеймс Кромуэлл, Дэниэл Студи, Чоппер Бернет, Джеф ЛеБо, Джон Рубано, Ричард МакГонагл, Мэтт Левин, Адам Пол, Роберт Кайт, Чарльз Нэпьер, Мередит Уэллс, Занн МаКларнон, Майкл Хорс, Дональд Фуллилов-Описание: Этот приключенческий мультфильм рассказывает историю дикого жеребца мустанга Спирита, путешествующего по территории всей Америки. Храбрый Спирит заводит дружбу с молодым индейцем Ручейком и находит любовь с красивой кобылой по имени Гроза.
Все счастливы до тех пор, пока на жеребца не положили глаз люди, которые хотят сделать из него военную лошадь…-Сэмпл IMDB КиноПоиск-Качество видео: BDRip
Контейнер: MKV
Стандарт разрешения: 720p
Видео кодек: H.264
Аудио кодек: AC3
Видео: 1280x544 (2.35:1), 5 200 Kbps, 23.976 fps, 0.311 bit/pix
Аудио: Russian: AC3, 448 Kbps, 6 ch, 48.0 KHz [Dub]
Аудио #2: Russian: AC3, 448 Kbps, 6 ch, 48.0 KHz [MVO]
Cубтитры: Русские, английские
Код:
General
Unique ID                                : 235086844427303076614698383839018871980 (0xB0DC144E6856E11FB5F15E37D9EFECAC)
Complete name                            : C:\Users\Admin\Desktop\Spirit.Stallion.of.the.Cimarron.2002.BDRip.720p.mkv
Format                                   : Matroska
Format version                           : Version 2
File size                                : 3.57 GiB
Duration                                 : 1h 23mn
Overall bit rate                         : 6 116 Kbps
Movie name                               : Rip by LPPI [Pirat.ca]
Encoded date                             : UTC 2014-04-17 09:07:46
Writing application                      : mkvmerge v4.7.0 ('Just Like You Imagined') сборка от Apr 21 2011 01:13:14
Writing library                          : libebml v1.2.0 + libmatroska v1.1.0
Video
ID                                       : 1
Format                                   : AVC
Format/Info                              : Advanced Video Codec
Format profile                           : [email protected]
Format settings, CABAC                   : Yes
Format settings, ReFrames                : 7 frames
Codec ID                                 : V_MPEG4/ISO/AVC
Duration                                 : 1h 23mn
Bit rate                                 : 5 200 Kbps
Width                                    : 1 280 pixels
Height                                   : 544 pixels
Display aspect ratio                     : 2.35:1
Frame rate mode                          : Constant
Frame rate                               : 23.976 fps
Color space                              : YUV
Chroma subsampling                       : 4:2:0
Bit depth                                : 8 bits
Scan type                                : Progressive
Bits/(Pixel*Frame)                       : 0.311
Stream size                              : 2.97 GiB (83%)
Writing library                          : x264 core 130 r2273 b3065e6
Encoding settings                        : cabac=1 / ref=7 / deblock=1:-1:-1 / analyse=0x3:0x133 / me=umh / subme=11 / psy=1 / psy_rd=1.00:0.15 / mixed_ref=0 / me_range=48 / chroma_me=1 / trellis=2 / 8x8dct=1 / cqm=0 / deadzone=21,11 / fast_pskip=0 / chroma_qp_offset=-3 / threads=12 / lookahead_threads=2 / sliced_threads=0 / nr=0 / decimate=1 / interlaced=0 / bluray_compat=0 / constrained_intra=0 / bframes=8 / b_pyramid=2 / b_adapt=2 / b_bias=0 / direct=3 / weightb=1 / open_gop=0 / weightp=2 / keyint=250 / keyint_min=23 / scenecut=40 / intra_refresh=0 / rc_lookahead=50 / rc=2pass / mbtree=1 / bitrate=5200 / ratetol=1.0 / qcomp=0.60 / qpmin=0 / qpmax=69 / qpstep=4 / cplxblur=20.0 / qblur=0.5 / ip_ratio=1.40 / aq=1:1.00
Language                                 : English
Default                                  : Yes
Forced                                   : No
Audio #1
ID                                       : 2
Format                                   : AC-3
Format/Info                              : Audio Coding 3
Mode extension                           : CM (complete main)
Format settings, Endianness              : Big
Codec ID                                 : A_AC3
Duration                                 : 1h 23mn
Bit rate mode                            : Constant
Bit rate                                 : 448 Kbps
Channel(s)                               : 6 channels
Channel positions                        : Front: L C R, Side: L R, LFE
Sampling rate                            : 48.0 KHz
Bit depth                                : 16 bits
Compression mode                         : Lossy
Stream size                              : 268 MiB (7%)
Title                                    : Дублированный
Language                                 : Russian
Default                                  : Yes
Forced                                   : No
Audio #2
ID                                       : 3
Format                                   : AC-3
Format/Info                              : Audio Coding 3
Mode extension                           : CM (complete main)
Format settings, Endianness              : Big
Codec ID                                 : A_AC3
Duration                                 : 1h 23mn
Bit rate mode                            : Constant
Bit rate                                 : 448 Kbps
Channel(s)                               : 6 channels
Channel positions                        : Front: L C R, Side: L R, LFE
Sampling rate                            : 48.0 KHz
Bit depth                                : 16 bits
Compression mode                         : Lossy
Stream size                              : 268 MiB (7%)
Title                                    : Профессиональный многоголосый
Language                                 : Russian
Default                                  : No
Forced                                   : No
Text #1
ID                                       : 4
Format                                   : PGS
Muxing mode                              : zlib
Codec ID                                 : S_HDMV/PGS
Codec ID/Info                            : The same subtitle format used on BDs/HD-DVDs
Language                                 : Russian
Default                                  : No
Forced                                   : No
Text #2
ID                                       : 5
Format                                   : PGS
Muxing mode                              : zlib
Codec ID                                 : S_HDMV/PGS
Codec ID/Info                            : The same subtitle format used on BDs/HD-DVDs
Language                                 : English
Default                                  : No
Forced                                   : No
Download / Скачать

Хотите скачать бесплатно? Зарегистрируйтесь на сайте (ссылка на регистрацию). Pirat.ca - самый быстрый торрент трекер в рунете!

Как скачивать  ·   Что такое торрент  ·   Рейтинг и ограничения

Бендор

Морской Волк

Пост 27-Апр-2014 15:10 (спустя 10 дней)

[Q] 

обожаю этот мультфильф ay
[Профиль]  [ЛС] 

NEARO

Лоцман

Пост 04-Май-2014 23:38 (спустя 7 дней)

[Q] 

скажите пожалуйсто
песни там тоже на русском?
или на английском
я знаю что музыка к мультфильму переводилась профессионально
по телику показывали там всё на русском было вобщем
а тут скачивал с нескольких торрентов уже и там везде
дубляж сам тот же но песни на английском везде
[Профиль]  [ЛС] 

Daeron

340

Пост 04-Май-2014 23:48 (спустя 10 минут)

[Q] 

а как по возрасту? младшего школьного будут смотреть?

_________________
[Профиль]  [ЛС] 

NEARO

Лоцман

Пост 04-Май-2014 23:55 (спустя 7 минут)

[Q] 

Daeron,
да для любого возраста
будит хорош как детям так и взрослым
[Профиль]  [ЛС] 
Показать сообщения:    
Ответить на тему

Текущее время: Сегодня 14:13

Часовой пояс: GMT + 4



Вы не можете начинать темы
Вы не можете отвечать на сообщения
Вы не можете редактировать свои сообщения
Вы не можете удалять свои сообщения
Вы не можете голосовать в опросах
Вы не можете прикреплять файлы к сообщениям
Вы не можете скачивать файлы

▼ Вниз