ML
     
  Уважаемый Гость!
Вы можете поддержать проект и зарегистрироваться у наших партнеров - онлайн-стратегия MyLands. При регистрации в игре Вы получите код, который сможете активировать после регистрации на pirat.ca и получить 1000 дублонов.

Ваш код:
a261790f23fb05d13d060bdee9cb70d1451a6d3d
 
     

Тарзан / Tarzan (Райнхард Клоосс / Reinhard Klooss) [2013 г., Мультфильм, Семейный, Приключения, HDRip] Dub

Ответить на тему
 
Автор
Сообщение

Пост 22-Апр-2014 00:58

[Q] 

firespeed

Лоцман

-Тарзан / Tarzan-- Производство: Германия / Constantin Film Produktion, Ambient Entertainment GmbH
Режиссер: Райнхард Клоосс / Reinhard Klooss
Жанр: Мультфильм, Семейный, Приключения
Год выпуска: 2013 г.
Продолжительность: 01:34:11
Перевод: Профессиональный (полное дублирование) [лицензия]
Описание: Во время крушения американского воздушного лайнера в джунглях погибли все пассажиры, выжил лишь один младенец. Он стал приемышем в стае диких обезьян, которые выкормили, вырастили его, научили выживать в этом жестком мире естественного отбора… Пришло время, и теперь мощный и ловкий, он должен защитить свой мир от врагов. Но главное — он должен снова стать человеком.


Качество видео: HDRip
Контейнер: AVI
Видео кодек: XviD
Аудио кодек: AC3
Видео: 720x304 (2.37:1), 23.976 fps, XviD build 50 ~1620 kbps avg, 0.31 bit/pixel
Аудио: 48 kHz, AC3 Dolby Digital, 3/2 (L,C,R,l,r) + LFE ch, ~448 kbps
Cубтитры: отсутствуют
Format : AVI
Format/Info : Audio Video Interleave
File size : 1.37 GiB
Duration : 1h 34mn
Overall bit rate : 2 078 Kbps
Writing application : VirtualDubMod 1.5.10.2 (build 2540/release)
Writing library : VirtualDubMod build 2540/release
Video
ID : 0
Format : MPEG-4 Visual
Format profile : Advanced [email protected]
Format settings, BVOP : 2
Format settings, QPel : No
Format settings, GMC : No warppoints
Format settings, Matrix : Custom
Codec ID : XVID
Codec ID/Hint : XviD
Duration : 1h 34mn
Bit rate : 1 621 Kbps
Width : 720 pixels
Height : 304 pixels
Display aspect ratio : 2.35:1
Frame rate : 23.976 fps
Color space : YUV
Chroma subsampling : 4:2:0
Bit depth : 8 bits
Scan type : Progressive
Compression mode : Lossy
Bits/(Pixel*Frame) : 0.309
Stream size : 1.07 GiB (78%)
Writing library : XviD 1.2.1 (UTC 2008-12-04)
Audio
ID : 1
Format : AC-3
Format/Info : Audio Coding 3
Mode extension : CM (complete main)
Format settings, Endianness : Big
Codec ID : 2000
Duration : 1h 34mn
Bit rate mode : Constant
Bit rate : 448 Kbps
Channel count : 6 channels
Channel positions : Front: L C R, Side: L R, LFE
Sampling rate : 48.0 KHz
Bit depth : 16 bits
Compression mode : Lossy
Stream size : 302 MiB (22%)
Alignment : Split accross interleaves
Interleave, duration : 42 ms (1.00 video frame)
Interleave, preload duration : 500 ms
Download / Скачать

Хотите скачать бесплатно? Зарегистрируйтесь на сайте (ссылка на регистрацию). Pirat.ca - самый быстрый торрент трекер в рунете!

Как скачивать  ·   Что такое торрент  ·   Рейтинг и ограничения

Пост 22-Апр-2014 06:46 (спустя 5 часов)

Топик был перенесен из форума Мультфильмы (Трюм) в форум Новинки (HD|DVD|BD| TV|SAT|PDTV| - Rips)
erchine
 

kinstintin

Гроза морей

Пост 22-Апр-2014 08:00 (спустя 7 часов)

[Q] 

Спасибо!!!
Автору респект!!!
[Профиль]  [ЛС] 

xdsl

Морской Волк

Пост 22-Апр-2014 08:11 (спустя 10 минут)

[Q] 

Спасибо) Лови бочку
[Профиль]  [ЛС] 

ScorpioKZ

Шкипер

Пост 22-Апр-2014 14:11 (спустя 6 часов)

[Q] 

Спасибо!!!
Посмотрим с дочей.
[Профиль]  [ЛС] 

KoSkud

Флибустьер

Пост 22-Апр-2014 17:06 (спустя 2 часа 54 минуты)

[Q] 

тоже поблагодарю,пожалуй ))

_________________
Учись-играя,играя-учись
[Профиль]  [ЛС] 

Танюха10988

Гроза морей

Пост 22-Апр-2014 18:26 (спустя 1 час 19 минут)

[Q] 

Спасибо)) Лови бочку Автору респект!!!
[Профиль]  [ЛС] 

diabolic

Шкипер

Пост 22-Апр-2014 19:00 (спустя 34 минуты)

[Q] 

норм мульт На любителя
[Профиль]  [ЛС] 

Urlhtml

Корсар

Пост 22-Апр-2014 19:05 (спустя 5 минут)

[Q] 

Спасибо!!! прикольный мульт
[Профиль]  [ЛС] 

xdsl

Морской Волк

Пост 26-Апр-2014 11:30 (спустя 3 дня)

[Q] 

Качество на ура Спасибо!!!
[Профиль]  [ЛС] 

Дэн

Флибустьер

Пост 27-Апр-2014 01:20 (спустя 13 часов)

[Q] 

..спасибо !
[Профиль]  [ЛС] 

zlotosalien

Флибустьер

Пост 27-Апр-2014 01:46 (спустя 26 минут)

[Q] 

Честно говоря...Начальная завязка с метеоритом вообще не вписывается в мультфильм! Лучше бы отбросили этот идиотизм в сторону...пускай бы просто вертолет в грозу попал и все! И еще прикол...мальчик с начало рыжий был а потом вдруг стал черным(Это даже на скринах в раздаче видно)!
[Профиль]  [ЛС] 

baltimor30

Морской Волк

Пост 01-Май-2014 21:50 (спустя 4 дня)

[Q] 

так уж и быть гляну
[Профиль]  [ЛС] 

Полтос

Флибустьер

Пост 02-Май-2014 10:19 (спустя 12 часов)

[Q] 

527645 И еще прикол...мальчик с начало рыжий был а потом вдруг стал черным(Это даже на скринах в раздаче видно)!
Так он ж почти не мылся, вот и потемнел со временем!) А кроме шуток, мне и моим детям мульт очень понравился. Нарисован красиво, со смыслом и с небывалым ранее для данной истории (это про Тарзана и метеорит) размахом. С уверенностью говорю, что трафик не потрачен зря.
Мне понравилось Спасибо!!!

_________________
Первый закон Прапорщика: Всё что поднимаемо - относительно!)
[Профиль]  [ЛС] 

tse

Морской Волк

Пост 04-Май-2014 00:49 (спустя 1 день 14 часов)

[Q] 

529695
527645 И еще прикол...мальчик с начало рыжий был а потом вдруг стал черным(Это даже на скринах в раздаче видно)!
Так он ж почти не мылся, вот и потемнел со временем!) А кроме шуток, мне и моим детям мульт очень понравился. Нарисован красиво, со смыслом и с небывалым ранее для данной истории (это про Тарзана и метеорит) размахом. С уверенностью говорю, что трафик не потрачен зря.
Мне понравилось Спасибо!!!
Думаю тоже качну. Для семейного просмотра.
[Профиль]  [ЛС] 

tse

Морской Волк

Пост 04-Май-2014 16:52 (спустя 16 часов)

[Q] 

Качнул. Понравилось. Всей семье. Рекомендую.
[Профиль]  [ЛС] 

lexaspirit

Пост 04-Мар-2016 23:41 (спустя 1 год 10 месяцев)

[Q] 

Заезженый сюжет. Надо что-то новое. Посмотрел но не с удовольствием

_________________
-------------------- ----------------------
[Профиль]  [ЛС] 
Показать сообщения:    
Ответить на тему

Текущее время: Сегодня 20:02

Часовой пояс: GMT + 4



Вы не можете начинать темы
Вы не можете отвечать на сообщения
Вы не можете редактировать свои сообщения
Вы не можете удалять свои сообщения
Вы не можете голосовать в опросах
Вы не можете прикреплять файлы к сообщениям
Вы не можете скачивать файлы

▼ Вниз