ML
     
  Уважаемый Гость!
Вы можете поддержать проект и зарегистрироваться у наших партнеров - онлайн-стратегия MyLands. При регистрации в игре Вы получите код, который сможете активировать после регистрации на pirat.ca и получить 1000 дублонов.

Ваш код:
8b752b428cf60a012c159dcae592cd1392170115
 
     

Лисёнок Вук / Vuk (Аттила Даргаи / Attila Dargay) [1981 г., семейный, приключения, DVDRip] Dub

Ответить на тему
 
Автор
Сообщение

Пост 22-Апр-2014 13:26

[Q] 

Мархуз

-Лисёнок Вук / Vuk-- Производство: Венгрия, Паннония-филм
Режиссер: Аттила Даргаи / Attila Dargay
Жанр: семейный, приключения
Год выпуска: 1981 г.
Продолжительность: 01:05:46
Перевод: Профессиональный (полное дублирование)
Роли озвучивали: Валерий Рыжаков, Владимир Ферапонтов, Герман Качин, Даниил Нетребин, Мария Виноградова-Описание: Этот мультипликационный фильм, созданный по мотивам одноименной сказки И. Фекете, рассказывает о приключениях маленького озорного лисенка Вука. Много пережил этот хвастунишка, прежде чем превратился в сильного умного лиса, сумевшего перехитрить даже известного охотника Гладкокожего.-Сэмпл
Качество видео: DVDRip
Контейнер: AVI
Видео кодек: XviD
Аудио кодек: AC3
Видео: 720x544; 2079 kbps; 25 fps; 0.212 bit/pixel
Аудио: 192 kbps; 2 ch; 48 kHz
Cубтитры: отсутствуют
Общее
Полное имя : E:\Torrent\Vuk_[Pirat.ca].torrent.avi
Формат : AVI
Формат/Информация : Audio Video Interleave
Размер файла : 1,05 Гбайт
Продолжительность : 1 ч. 5 м.
Общий поток : 2280 Кбит/сек
Программа кодирования : VirtualDubMod 1.5.10.2 (build 2540/release)
Библиотека кодирования : VirtualDubMod build 2540/release
Видео
Идентификатор : 0
Формат : MPEG-4 Visual
Профиль формата : Advanced [email protected]
Параметр BVOP формата : 1
Параметр QPel формата : Нет
Параметр GMC формата : Без точки перехода
Параметр матрицы формата : Default (MPEG)
Идентификатор кодека : XVID
Идентификатор кодека/Подсказка : XviD
Продолжительность : 1 ч. 5 м.
Битрейт : 2079 Кбит/сек
Ширина : 720 пикселей
Высота : 544 пикселя
Соотношение сторон : 4:3
Частота кадров : 25,000 кадров/сек
Цветовое пространство : YUV
Субдискретизация насыщенности : 4:2:0
Битовая глубина : 8 бит
Тип развёртки : Прогрессивная
Метод сжатия : С потерями
Бит/(Пиксели*Кадры) : 0.212
Размер потока : 978 Мбайт (91%)
Библиотека кодирования : XviD 63
Аудио
Идентификатор : 1
Формат : AC-3
Формат/Информация : Audio Coding 3
Расширение режима : CM (complete main)
Параметр Endianness формата : Big
Идентификатор кодека : 2000
Продолжительность : 1 ч. 5 м.
Вид битрейта : Постоянный
Битрейт : 192 Кбит/сек
Каналы : 2 канала
Расположение каналов : Front: L R
Частота : 48,0 КГц
Битовая глубина : 16 бит
Метод сжатия : С потерями
Задержка видео : 24 мс.
Размер потока : 90,3 Мбайт (8%)
Выравнивание : Разделение по промежуткам
Продолжительность промежутка : 40 мс. (1,00 видеокадр)
Время предзагрузки промежутка : 500 мс.
Раздача с 14.00 до 2.30 (время московское)
Download / Скачать

Хотите скачать бесплатно? Зарегистрируйтесь на сайте (ссылка на регистрацию). Pirat.ca - самый быстрый торрент трекер в рунете!

Как скачивать  ·   Что такое торрент  ·   Рейтинг и ограничения

Loxly

Гроза морей

Пост 23-Апр-2014 19:08 (спустя 1 день 5 часов)

[Q] 

Отличный мультик. Дочку порадую.
Спасибо!!!
[Профиль]  [ЛС] 

anatolyul

Морской Волк

Пост 11-Май-2015 17:15 (спустя 1 год)

[Q] 

мультфильм моего детства!
обязательно покажу своим детям.
[Профиль]  [ЛС] 
Показать сообщения:    
Ответить на тему

Текущее время: Сегодня 06:18

Часовой пояс: GMT + 4



Вы не можете начинать темы
Вы не можете отвечать на сообщения
Вы не можете редактировать свои сообщения
Вы не можете удалять свои сообщения
Вы не можете голосовать в опросах
Вы не можете прикреплять файлы к сообщениям
Вы не можете скачивать файлы

▼ Вниз