ML
     
  Уважаемый Гость!
Вы можете поддержать проект и зарегистрироваться у наших партнеров - онлайн-стратегия MyLands. При регистрации в игре Вы получите код, который сможете активировать после регистрации на pirat.ca и получить 1000 дублонов.

Ваш код:
11f49771fdf057c9d51610e4a0925c3b46ddb655
 
     

Тарзан / Tarzan (Райнхард Клоосс / Reinhard Klooss) [2013 г., Мультфильм, Семейный, Приключения, BDRip-AVC] Dub [Лицензия]

Ответить на тему
 
Автор
Сообщение

Пост 22-Апр-2014 19:32

[Q] 

LPPI

-Тарзан / Tarzan- Производство: Германия, Constantin Film Produktion, Ambient Entertainment GmbH
Жанр: Мультфильм, Семейный, Приключения
Год выпуска: 2013 г.
Продолжительность: 01:34:11
Мировая премьера: 12 декабря 2013-Перевод: Профессиональный (полное дублирование) [Лицензия]-Режиссер: Райнхард Клоосс / Reinhard Klooss
Роли озвучивали: Келлан Латс, Спенсер Лок, Тревор Ст. Джон, Лес Бабб, Брайан Блум, Брайан Хаски, Роберт Капрон, Джейми Рэй Ньюман, Марк Деклин, Джо Осмонд-Описание: Во время крушения американского воздушного лайнера в джунглях погибли все пассажиры, выжил лишь один младенец. Он стал приемышем в стае диких обезьян, которые выкормили, вырастили его, научили выживать в этом жестком мире естественного отбора… Пришло время, и теперь мощный и ловкий, он должен защитить свой мир от врагов. Но главное — он должен снова стать человеком.-Сэмпл IMDB КиноПоиск-Качество видео: BDRip-AVC
Контейнер: MKV
Видео кодек: MPEG-4 AVC
Аудио кодек: AC3
Видео: 1024x430 (2.40:1), 23.976 fps, 1763 kbps avg, 0.167 bit/pix
Аудио: 48 kHz, 6 ch, 448 kbps
Cубтитры: отсутствуют
Дополнительно: Фильм разбит на главы, как на оригинальном Blu-ray диске.
General
Unique ID : 216031728315281950210671156070680253503 (0xA286328C15842D4BB55AB22E9486543F)
Complete name : D:\Tarzan.2013.D.BDRip-AVC.mkv
Format : Matroska
Format version : Version 4 / Version 2
File size : 1.45 GiB
Duration : 1h 34mn
Overall bit rate : 2 210 Kbps
Encoded date : UTC 2014-04-22 03:07:32
Writing application : mkvmerge v6.9.0 ('On Duende') 64bit built on Apr 18 2014 12:57:54
Writing library : libebml v1.3.0 + libmatroska v1.4.1
Video
ID : 1
Format : AVC
Format/Info : Advanced Video Codec
Format profile : [email protected]
Format settings, CABAC : Yes
Format settings, ReFrames : 8 frames
Codec ID : V_MPEG4/ISO/AVC
Duration : 1h 34mn
Bit rate : 1 763 Kbps
Width : 1 024 pixels
Height : 430 pixels
Display aspect ratio : 2.40:1
Frame rate mode : Constant
Frame rate : 23.976 fps
Color space : YUV
Chroma subsampling : 4:2:0
Bit depth : 8 bits
Scan type : Progressive
Bits/(Pixel*Frame) : 0.167
Stream size : 1.13 GiB (78%)
Writing library : x264 core 138 r2356 a1d3d17
Encoding settings : cabac=1 / ref=8 / deblock=1:-3:-2 / analyse=0x3:0x113 / me=umh / subme=10 / psy=1 / psy_rd=1.00:0.05 / mixed_ref=1 / me_range=32 / chroma_me=1 / trellis=2 / 8x8dct=1 / cqm=0 / deadzone=21,11 / fast_pskip=0 / chroma_qp_offset=-3 / threads=9 / lookahead_threads=1 / sliced_threads=0 / nr=0 / decimate=0 / interlaced=0 / bluray_compat=0 / constrained_intra=0 / bframes=8 / b_pyramid=2 / b_adapt=2 / b_bias=0 / direct=3 / weightb=1 / open_gop=0 / weightp=2 / keyint=240 / keyint_min=24 / scenecut=40 / intra_refresh=0 / rc_lookahead=40 / rc=2pass / mbtree=1 / bitrate=1763 / ratetol=1.0 / qcomp=0.60 / qpmin=0 / qpmax=69 / qpstep=4 / cplxblur=20.0 / qblur=0.5 / ip_ratio=1.40 / aq=1:1.00
Default : Yes
Forced : No
Audio
ID : 2
Format : AC-3
Format/Info : Audio Coding 3
Mode extension : CM (complete main)
Format settings, Endianness : Big
Codec ID : A_AC3
Duration : 1h 34mn
Bit rate mode : Constant
Bit rate : 448 Kbps
Channel(s) : 6 channels
Channel positions : Front: L C R, Side: L R, LFE
Sampling rate : 48.0 KHz
Bit depth : 16 bits
Compression mode : Lossy
Stream size : 302 MiB (20%)
Default : Yes
Forced : No
Menu
00:00:00.000 : en:00:00:00.000
00:07:14.017 : en:00:07:14.017
00:16:43.586 : en:00:16:43.586
00:23:57.019 : en:00:23:57.019
00:32:42.210 : en:00:32:42.210
00:39:06.302 : en:00:39:06.302
00:46:22.488 : en:00:46:22.488
00:56:07.656 : en:00:56:07.656
01:05:37.433 : en:01:05:37.433
01:14:57.827 : en:01:14:57.827
01:21:31.428 : en:01:21:31.428
01:25:21.616 : en:01:25:21.616
Download / Скачать

Хотите скачать бесплатно? Зарегистрируйтесь на сайте (ссылка на регистрацию). Pirat.ca - самый быстрый торрент трекер в рунете!

Как скачивать  ·   Что такое торрент  ·   Рейтинг и ограничения

airat85

Корсар

Пост 22-Апр-2014 20:33 (спустя 1 час)

[Q] 

спасибо!!! посмотрим и оценим!!!
[Профиль]  [ЛС] 

ATHLON

Шкипер

12

Пост 24-Апр-2014 12:38 (спустя 1 день 16 часов)

[Q] 

надеюсь уже картинка не будет отдельно идти от звука anime25
[Профиль]  [ЛС] 

ATHLON

Шкипер

12

Пост 24-Апр-2014 20:34 (спустя 7 часов)

[Q] 

качество шикарное!!!! Качают ВСЕ!!! Спасибо!!!
[Профиль]  [ЛС] 

Tramp

Корсар

97

Пост 25-Апр-2014 15:18 (спустя 18 часов)

[Q] 

А само-то произведение как?
[Профиль]  [ЛС] 

NIKROLUNGER

Флибустьер

60

Пост 04-Май-2014 06:04 (спустя 8 дней)

[Q] 

Просматривая современные мультфильмы всё больше убеждаюсь, что нашим детям можно показывать только мультики времён СССР.
[Профиль]  [ЛС] 

Pippo48

Корсар

Пост 04-Май-2014 11:30 (спустя 5 часов)

[Q] 

Хороший детский мультфильм, не знаю почему некоторым не понравилось Спасибо!!!
[Профиль]  [ЛС] 

tse

Морской Волк

Пост 04-Май-2014 16:51 (спустя 5 часов)

[Q] 

Годный мульт. Всей семье понравился.
[Профиль]  [ЛС] 

srg078rus

Корсар

97

Пост 04-Май-2014 17:23 (спустя 31 минута)

[Q] 

Лови бочку

_________________
[Профиль]  [ЛС] 

medved31

Штурман

Пост 04-Май-2014 20:25 (спустя 3 часа)

[Q] 

Спасибо!!! Мне понравилось можно посмотреть!
[Профиль]  [ЛС] 

ALEHAN

Легенда

Пост 08-Май-2014 00:07 (спустя 3 дня)

[Q] 

Сюжет кошмарный. Поскидывали в кучу джунгли, энергетический метеорит, горилл, злые корпорации, и черт знает что ещё, качество мульта на высоте, картинка шикарна, но стерильна, без индивидуальности, уже через месяц и не вспомню, что было в мульте, а через пол года, что вообще смотрел)
[Профиль]  [ЛС] 

trofimoff

Штурман

Пост 08-Май-2014 15:48 (спустя 15 часов)

[Q] 

Спасибо! Супер! Раздающему респект!
[Профиль]  [ЛС] 

Tramp

Корсар

97

Пост 11-Май-2014 13:52 (спустя 2 дня 22 часа)

[Q] 

Аватар... но с Тарзаном. Безликий мульт. Кроме красивых пейзажей, смотреть не на что.
[Профиль]  [ЛС] 

Jek@

Легенда

Пост 13-Май-2014 10:52 (спустя 1 день 21 час)

[Q] 

Спасибо!!! .
[Профиль]  [ЛС] 

dante456280

Лоцман

Пост 16-Май-2014 17:13 (спустя 3 дня)

[Q] 

никакого сравнения с книгой, полный отстой сюжета, начиная с того что заместо Калы у них Карла, и заканчивая тем что мульт полная пропаганда Америки, хотя Тарзан БРИТАНЕЦ
но графика и рисовка на высоте. Смотреть на ООООчень большого любителя
[Профиль]  [ЛС] 
Показать сообщения:    
Ответить на тему

Текущее время: Сегодня 03:11

Часовой пояс: GMT + 4



Вы не можете начинать темы
Вы не можете отвечать на сообщения
Вы не можете редактировать свои сообщения
Вы не можете удалять свои сообщения
Вы не можете голосовать в опросах
Вы не можете прикреплять файлы к сообщениям
Вы не можете скачивать файлы

▼ Вниз