ML
     
  Уважаемый Гость!
Вы можете поддержать проект и зарегистрироваться у наших партнеров - онлайн-стратегия MyLands. При регистрации в игре Вы получите код, который сможете активировать после регистрации на pirat.ca и получить 1000 дублонов.

Ваш код:
4fbd9898b6f10799a3e8edf60f31febd2bc15453
 
     

Сын Бэтмена / Son of Batman (Этан Сполдинг / Ethan Spaulding) [2014 г., Мультфильм, фэнтези, боевик, драма, криминал, детектив, приключения, семейный, HDRip-AVC] MVO [DuBDraG ProJECT]

Ответить на тему
 
Автор
Сообщение

Пост 25-Апр-2014 22:50

[Q] 

LPPI

-Сын Бэтмена / Son of Batman- Производство: США, DC Entertainment, Warner Bros. Animation, Warner Premiere
Жанр: Мультфильм, фэнтези, боевик, драма, криминал, детектив, приключения, семейный
Год выпуска: 2014 г.
Продолжительность: 01:14:12
Мировая премьера: 6 мая 2014-Перевод: Любительский (многоголосый, закадровый) [DuBDraG ProJECT]-Режиссер: Этан Сполдинг / Ethan Spaulding
Роли озвучивали: Джейсон О’Мара, Томас Гибсон, Морена Баккарин, Джанкарло Эспозито, Дэвид МакКаллум, Ксандер Беркли, Шон Маэр, Фред Татаскьор, Брюс Томас, Стюарт Аллан-Описание: Бэтмен узнает, что он имеет наследника, подростка сына, тайно посланного террористической группой Лига Убийц.-Сэмпл IMDB КиноПоиск-Качество видео: HDRip-AVC
Контейнер: MKV
Видео кодек: H.264
Аудио кодек: AC3
Видео: 768x432 (16:9), 2 399 Kbps, 23.976 fps, 0.302 bit/pix
Аудио: 192 Kbps, 2 ch, 48.0 KHz
Cубтитры: отсутствуют
General
Unique ID : 241058227752625965378230523707349416803 (0xB55A203C183466DFBA462456D4A63B63)
Complete name : C:\Users\Admin\Desktop\Son.of.Batman.2014.HDRip-AVC.mkv
Format : Matroska
Format version : Version 2
File size : 1.34 GiB
Duration : 1h 14mn
Overall bit rate : 2 592 Kbps
Encoded date : UTC 2014-04-25 18:26:22
Writing application : mkvmerge v4.7.0 ('Just Like You Imagined') сборка от Apr 21 2011 01:13:14
Writing library : libebml v1.2.0 + libmatroska v1.1.0
Video
ID : 1
Format : AVC
Format/Info : Advanced Video Codec
Format profile : [email protected]
Format settings, CABAC : Yes
Format settings, ReFrames : 7 frames
Codec ID : V_MPEG4/ISO/AVC
Duration : 1h 14mn
Bit rate : 2 399 Kbps
Width : 768 pixels
Height : 432 pixels
Display aspect ratio : 16:9
Frame rate mode : Constant
Frame rate : 23.976 fps
Color space : YUV
Chroma subsampling : 4:2:0
Bit depth : 8 bits
Scan type : Progressive
Bits/(Pixel*Frame) : 0.302
Stream size : 1.22 GiB (91%)
Writing library : x264 core 130 r2273 b3065e6
Encoding settings : cabac=1 / ref=7 / deblock=1:-1:-1 / analyse=0x3:0x133 / me=umh / subme=10 / psy=1 / psy_rd=1.00:0.15 / mixed_ref=0 / me_range=24 / chroma_me=1 / trellis=2 / 8x8dct=1 / cqm=0 / deadzone=21,11 / fast_pskip=0 / chroma_qp_offset=-3 / threads=12 / lookahead_threads=1 / sliced_threads=0 / nr=0 / decimate=1 / interlaced=0 / bluray_compat=0 / constrained_intra=0 / bframes=6 / b_pyramid=2 / b_adapt=2 / b_bias=0 / direct=3 / weightb=1 / open_gop=0 / weightp=2 / keyint=250 / keyint_min=23 / scenecut=40 / intra_refresh=0 / rc_lookahead=50 / rc=2pass / mbtree=1 / bitrate=2399 / ratetol=1.0 / qcomp=0.60 / qpmin=0 / qpmax=69 / qpstep=4 / cplxblur=20.0 / qblur=0.5 / ip_ratio=1.40 / aq=1:1.00
Language : English
Default : Yes
Forced : No
Audio
ID : 2
Format : AC-3
Format/Info : Audio Coding 3
Mode extension : CM (complete main)
Format settings, Endianness : Big
Codec ID : A_AC3
Duration : 1h 14mn
Bit rate mode : Constant
Bit rate : 192 Kbps
Channel(s) : 2 channels
Channel positions : Front: L R
Sampling rate : 48.0 KHz
Bit depth : 16 bits
Compression mode : Lossy
Stream size : 102 MiB (7%)
Language : Russian
Default : Yes
Forced : No
Download / Скачать

Хотите скачать бесплатно? Зарегистрируйтесь на сайте (ссылка на регистрацию). Pirat.ca - самый быстрый торрент трекер в рунете!

Как скачивать  ·   Что такое торрент  ·   Рейтинг и ограничения

karlik1987

Юнга

Пост 26-Апр-2014 10:52 (спустя 12 часов)

[Q] 

Моя психика некогда небудет прежней!
[Профиль]  [ЛС] 

xdsl

Морской Волк

Пост 26-Апр-2014 11:27 (спустя 34 минуты)

[Q] 

Как по мне так норм,раз глянуть можно,за старание автор Лови бочку
[Профиль]  [ЛС] 

Дэн

Флибустьер

Пост 27-Апр-2014 01:22 (спустя 13 часов)

[Q] 

спасибо !
[Профиль]  [ЛС] 

lyokha

Корсар

1278

Пост 27-Апр-2014 11:48 (спустя 10 часов)

[Q] 

премьера в мире 6 мая... Это здорово!
Пиратка рулит!

_________________
— Ты с этим сможешь жить? Ты обрекаешь другого человека на вечные оковы, а сам будешь веселиться, гулять и пить?
— Ммм, да. Это по мне!
© "Пираты Карибского моря 2: Сундук мертвеца" bt
[Профиль]  [ЛС] 

Urlhtml

Корсар

Пост 27-Апр-2014 13:21 (спустя 1 час 33 минуты)

[Q] 

Супер! Раздающему респект!
[Профиль]  [ЛС] 

Начертатель

Корсар

Пост 27-Апр-2014 16:27 (спустя 3 часа)

[Q] 

Трешак) но смотреть можно

_________________
Rival
[Профиль]  [ЛС] 

kelto

Шкипер

Пост 16-Авг-2014 23:54 (спустя 3 месяца 19 дней)

[Q] 

Заценим Лови бочку
[Профиль]  [ЛС] 
Показать сообщения:    
Ответить на тему

Текущее время: Сегодня 19:57

Часовой пояс: GMT + 4



Вы не можете начинать темы
Вы не можете отвечать на сообщения
Вы не можете редактировать свои сообщения
Вы не можете удалять свои сообщения
Вы не можете голосовать в опросах
Вы не можете прикреплять файлы к сообщениям
Вы не можете скачивать файлы

▼ Вниз