ML
     
  Уважаемый Гость!
Вы можете поддержать проект и зарегистрироваться у наших партнеров - онлайн-стратегия MyLands. При регистрации в игре Вы получите код, который сможете активировать после регистрации на pirat.ca и получить 1000 дублонов.

Ваш код:
5f4e94775bc0501caff7b254e79328d304c817d9
 
     

Попугай Club / Попугай Club (Виталий Мухаметзянов) [2014 г., Мультфильм, комедия, семейный, SATRip]

Ответить на тему
 
Автор
Сообщение

Пост 17-Май-2014 16:12

[Q] 

Resident

-Попугай Club / Попугай Club-- Производство: Россия, анимационная студия «Мельница», Comedy Club Production
Режиссер: Виталий Мухаметзянов
Жанр: Мультфильм, комедия, семейный
Год выпуска: 2014 г.
Продолжительность: 01:29:52
Перевод: Не требуется
Роли озвучивали: Михаил Галустян, Анастасия Заворотнюк, Олеся Железняк, Юлий Гусман, Эммануил Виторган, Алексей Булдаков, Виктор Логинов, Мария Кожевникова, Олег Верещагин, Дмитрий Хрусталёв, Елена Юшкевич, Жанна Фриске, Александр Ревва, Павел Воля, Вадим Галыгин, Таир Мамедов, Гарик Мартиросян-Описание: История о современной Москве со знакомыми улицами, местами и героями. Весь набор стереотипов о столичной жизни главные герои проверят на достоверность, а также сделают немало открытий. Действие происходит в центре Москвы, на Рублевке и в Останкино. Судьбы животных и людей, как и положено в сказке, чудесным образом переплетаются, создавая многочисленные комичные, а местами и трогательные ситуации.-
Качество видео: SATRip
Контейнер: AVI
Видео кодек: XviD
Аудио кодек: MP3
Видео: XviD, 1895 Кбит/с, 720х320 (2.35:1),25.000 fps, 0.356 bpp
Аудио: 48kHz, MP3, 2 ch, 128 Кбит/с
Cубтитры: отсутствуют
General
Complete name : W:\Popugaj.Club.SATRip.avi
Format : AVI
Format/Info : Audio Video Interleave
File size : 1.37 GiB
Duration : 1h 29mn
Overall bit rate : 2 188 Kbps
Writing library : VirtualDub build 35491/release
Video
ID : 0
Format : MPEG-4 Visual
Format settings, BVOP : Yes
Format settings, QPel : No
Format settings, GMC : No warppoints
Format settings, Matrix : Default (H.263)
Muxing mode : Packed bitstream
Codec ID : DX50
Codec ID/Hint : DivX 5
Duration : 1h 29mn
Bit rate : 2 050 Kbps
Width : 720 pixels
Height : 320 pixels
Display aspect ratio : 2.25:1
Frame rate : 25.000 fps
Color space : YUV
Chroma subsampling : 4:2:0
Bit depth : 8 bits
Scan type : Progressive
Bits/(Pixel*Frame) : 0.356
Stream size : 1.29 GiB (94%)
Writing library : DivX 6.8.5 (UTC 2009-08-20)
Audio
ID : 1
Format : MPEG Audio
Format version : Version 1
Format profile : Layer 3
Codec ID : 55
Codec ID/Hint : MP3
Duration : 1h 29mn
Bit rate mode : Constant
Bit rate : 128 Kbps
Channel(s) : 1 channel
Sampling rate : 48.0 KHz
Stream size : 82.3 MiB (6%)
Alignment : Split accross interleaves
Interleave, duration : 40 ms (1.00 video frame)
Interleave, preload duration : 500 ms
Download / Скачать

Хотите скачать бесплатно? Зарегистрируйтесь на сайте (ссылка на регистрацию). Pirat.ca - самый быстрый торрент трекер в рунете!

Как скачивать  ·   Что такое торрент  ·   Рейтинг и ограничения

sevensv

Легенда

2576

Пост 17-Май-2014 16:26 (спустя 13 минут)

[Q] 

Спасибо!!! Лови бочку
[Профиль]  [ЛС] 

Барсик

Морской Волк

11

Пост 17-Май-2014 17:57 (спустя 1 час 31 минута)

[Q] 

только на тнт Лови бочку
[Профиль]  [ЛС] 

Barskavkaz

Корсар

Пост 17-Май-2014 18:36 (спустя 38 минут)

[Q] 

кто смотрел? как мульт?

_________________
Д.Тк
[Профиль]  [ЛС] 

Alexlogin

Гроза морей

105

Пост 17-Май-2014 19:02 (спустя 26 минут)

[Q] 

Спасибо держи Лови бочку
[Профиль]  [ЛС] 

kostykua

Шкипер

Пост 17-Май-2014 19:14 (спустя 11 минут)

[Q] 

Супер! Как раз искал.. Лови бочку
[Профиль]  [ЛС] 

Barskavkaz

Корсар

Пост 17-Май-2014 19:42 (спустя 27 минут)

[Q] 

скачан 23 раза, не кто еще не посмотрел?

_________________
Д.Тк
[Профиль]  [ЛС] 

gastello131

Флибустьер

159

Пост 17-Май-2014 20:44 (спустя 1 час 2 минуты)

[Q] 

качать то стоит?
[Профиль]  [ЛС] 

Dmitriy1881

Корсар

Пост 17-Май-2014 21:21 (спустя 37 минут)

[Q] 

спасибо, сейчас полядим
[Профиль]  [ЛС] 

pz4

Корсар

79

Пост 19-Май-2014 00:08 (спустя 1 день 2 часа)

[Q] 

Х***ня полная.

_________________
www.pirat.ca
[Профиль]  [ЛС] 

Совунья

Морской Волк

Пост 19-Май-2014 13:23 (спустя 13 часов)

[Q] 

Мягко говоря "на любителя" мульт. Я ожидала бОльшего..... bz
Раздающему респект!

_________________
Я верю в честность Президента, и в неподкупность постовых! В заботу банка о клиентах. В вампиров верю, в домовых.
[Профиль]  [ЛС] 

Gorbunkoff

Шкипер

Пост 19-Май-2014 18:34 (спустя 5 часов)

[Q] 

Осилил минут 25, шлак. Раздающему респект!
[Профиль]  [ЛС] 

Skat.56

Гроза морей

448

Пост 20-Май-2014 10:11 (спустя 15 часов)

[Q] 

Просмотрел до конца.
Есть пару натяжно-смешных моментов.
По сути муть.
[Профиль]  [ЛС] 

Пост 18-Июн-2014 14:27 (спустя 29 дней)

Топик был перенесен из форума Новинки (HD|DVD|BD| TV|SAT|PDTV| - Rips) в форум Фильмы 2010 - 2014 г.г.
kugesan
 
Показать сообщения:    
Ответить на тему

Текущее время: Сегодня 15:32

Часовой пояс: GMT + 4



Вы не можете начинать темы
Вы не можете отвечать на сообщения
Вы не можете редактировать свои сообщения
Вы не можете удалять свои сообщения
Вы не можете голосовать в опросах
Вы не можете прикреплять файлы к сообщениям
Вы не можете скачивать файлы

▼ Вниз