ML
     
  Уважаемый Гость!
Вы можете поддержать проект и зарегистрироваться у наших партнеров - онлайн-стратегия MyLands. При регистрации в игре Вы получите код, который сможете активировать после регистрации на pirat.ca и получить 1000 дублонов.

Ваш код:
47bfc18b89c74e4ae0d974e9b6943639e2bff08e
 
     

Пробуждение жизни / Waking Life (Ричард Линклейтер / Richard Linklater) [2001 г., фэнтези, анимация, драма, BDRip] MVO

Ответить на тему
 
Автор
Сообщение

Пост 17-Май-2014 20:47

[Q] 

AAWolf

-Пробуждение жизни / Waking Life- Год выпуска: 2001 г.
Производство: США
Жанр: фэнтези, анимация, драма
Продолжительность: 01:40:45
Мировая премьера: 23 января 2001
Перевод: Профессиональный (многоголосый, закадровый) [лицензия]
Режиссер: Ричард Линклейтер / Richard Linklater-В ролях: Тревор Джек Брукс, Лорелей Линклэйтер, Уайли Уиггинс, Гловер Гилл, Лара Хикс, Амес Асбелл, Ли Махони, Сара Нельсон, Джанин Аттавэй, Эрик Гростич-Описание: Весь этот анимационный фильм от начала до конца — ошеломляющая цепь превращений, калейдоскоп парадоксов, постоянно меняющийся мир, путешествие из реальности в сон и обратно.
Это философская притча, наполненная вечными вопросами и неожиданными ответами на них, здесь каждый шаг рождает новые загадки, мгновения фильма сталкиваются и перетекают одно в другое, как накатывающиеся на берег волны, а персонажи не связаны никакими законами природы или привычной логики. Этот мир может быть мечтой, а может — реальностью, но в любом случае — он прекрасен!
-Качество видео: BDRip
Контейнер: AVI
Видео кодек: XviD
Аудио кодек: AC3
Видео: 704x384 (1.83:1), 1864 kbps, 23.976 fps, 0.29 bit/pixel
Аудио: 192 kbps, 2 ch, 48.0 kHz
Cубтитры: отсутствуют
Общее
Полное имя : Пробуждение жизни_ Waking Life.2001.[BDRip].avi
Формат : AVI
Формат/Информация : Audio Video Interleave
Размер файла : 1,45 Гбайт
Продолжительность : 1 ч. 40 м.
Общий поток : 2065 Кбит/сек
Программа кодирования : VirtualDubMod 1.5.10.2 (build 2542/release)
Видео
Идентификатор : 0
Формат : MPEG-4 Visual
Профиль формата : Advanced [email protected]
Параметр BVOP формата : 2
Параметр QPel формата : Нет
Параметр GMC формата : Без точки перехода
Параметр матрицы формата : Выборочная
Идентификатор кодека : XVID
Идентификатор кодека/Подсказка : XviD
Продолжительность : 1 ч. 40 м.
Битрейт : 1864 Кбит/сек
Ширина : 704 пикселя
Высота : 384 пикселя
Соотношение сторон : 1,85:1
Частота кадров : 23,976 кадра/сек
Цветовое пространство : YUV
Субдискретизация насыщенности : 4:2:0
Битовая глубина : 8 бит
Тип развёртки : Прогрессивная
Метод сжатия : С потерями
Бит/(Пиксели*Кадры) : 0.288
Размер потока : 1,31 Гбайт (90%)
Библиотека кодирования : XviD 65
Аудио
Идентификатор : 1
Формат : AC-3
Формат/Информация : Audio Coding 3
Расширение режима : CM (complete main)
Параметр Endianness формата : Big
Идентификатор кодека : 2000
Продолжительность : 1 ч. 40 м.
Вид битрейта : Постоянный
Битрейт : 192 Кбит/сек
Каналы : 2 канала
Расположение каналов : Front: L R
Частота : 48,0 КГц
Битовая глубина : 16 бит
Метод сжатия : С потерями
Размер потока : 138 Мбайт (9%)
Выравнивание : Разделение по промежуткам
Продолжительность промежутка : 42 мс. (1,00 видеокадр)
Время предзагрузки промежутка : 500 мс.
Download / Скачать

Хотите скачать бесплатно? Зарегистрируйтесь на сайте (ссылка на регистрацию). Pirat.ca - самый быстрый торрент трекер в рунете!

Как скачивать  ·   Что такое торрент  ·   Рейтинг и ограничения

Пост 17-Май-2014 22:25 (спустя 1 час 37 минут)

Топик был перенесен из форума Зарубежное Кино (Трюм) в форум Мультфильмы (Трюм)
kugesan
 
Показать сообщения:    
Ответить на тему

Текущее время: Сегодня 07:04

Часовой пояс: GMT + 4



Вы не можете начинать темы
Вы не можете отвечать на сообщения
Вы не можете редактировать свои сообщения
Вы не можете удалять свои сообщения
Вы не можете голосовать в опросах
Вы не можете прикреплять файлы к сообщениям
Вы не можете скачивать файлы

▼ Вниз