ML
     
  Уважаемый Гость!
Вы можете поддержать проект и зарегистрироваться у наших партнеров - онлайн-стратегия MyLands. При регистрации в игре Вы получите код, который сможете активировать после регистрации на pirat.ca и получить 1000 дублонов.

Ваш код:
ca44e9295b9b8527ba1c339c20494f70782efea6
 
     

Метропия / Metropia (Тарик Салех / Tarik Saleh) [2009 г., фантастика, триллер, драма, антиутопия, BDRip, 720p] MVO + Original (Eng) + Sub (Rus)

Ответить на тему
 
Автор
Сообщение

Пост 18-Май-2014 13:31

[Q] 

AAWolf

-Метропия / Metropia-«Someone is listening to your thoughts»- Год выпуска: 2009 г.
Производство: Швеция , Дания , Норвегия , Atmo Media Network
Режиссер: Тарик Салех / Tarik Saleh
Жанр: фантастика, триллер, драма, антиутопия
Продолжительность: 01:25:42
Мировая премьера: 3 сентября 2009
Перевод: Профессиональный (многоголосый, закадровый)
Оригинальный аудиопоток: английский
Роли озвучивали: Винсент Галло, Джульетт Льюис, Удо Кир, Стеллан Скарсгард, Александр Скарсгард, София Хелин, Шанти Рони, Фарес Фарес, Фредерик Эддари, Дорин Манссон-Описание: 2024 год. Всё время идёт дождь. В утопическом Евросоюзе больше никто не ездит на машинах и не летает на самолётах. Велосипед - вне закона. Все города соединены сетью метро. Главный герой живёт с привлекательной мулаткой, но все его мысли и желания - о девушке с этикетки на упаковке шампуня. И однажды он встречает её на одной из станций метро…
-Качество видео: BDRip
Контейнер: MKV
Стандарт разрешения: 720p
Видео кодек: AVC
Аудио кодек: DTS, AC3
Видео: 1280x692 (1.85:1), 4700 kbps, 24 fps, 0.221 bit/pixel
Аудио: English [Org]: DTS, 1509 kbps, 6 ch, 48.0 kHz
Аудио #2: Russian [MVO]: AC3, 448 kbps, 6 ch, 48.0 kHz
Cубтитры: русские
Чаптеры: есть
Общее
Уникальный идентификатор : 229049286864667050892919695389898270671 (0xAC5149BC6BAD7266B2EE33554F2367CF)
Полное имя : Метропия_ Metropia.2009.[BDRip.720p].mkv
Формат : Matroska
Версия формата : Version 2
Размер файла : 3,99 Гбайт
Продолжительность : 1 ч. 25 м.
Общий поток : 6659 Кбит/сек
Дата кодирования : UTC 2011-02-14 13:38:21
Программа кодирования : mkvmerge v3.4.0 ('Rapunzel') built on May 15 2010 09:38:20
Библиотека кодирования : libebml v0.8.0 + libmatroska v0.9.0
Видео
Идентификатор : 1
Формат : AVC
Формат/Информация : Advanced Video Codec
Профиль формата : [email protected]
Параметр CABAC формата : Да
Параметр ReFrames формата : 9 кадров
Идентификатор кодека : V_MPEG4/ISO/AVC
Продолжительность : 1 ч. 25 м.
Битрейт : 4700 Кбит/сек
Ширина : 1280 пикселей
Высота : 692 пикселя
Соотношение сторон : 1,85:1
Режим частоты кадров : Постоянный
Частота кадров : 24,000 кадра/сек
Цветовое пространство : YUV
Субдискретизация насыщенности : 4:2:0
Битовая глубина : 8 бит
Тип развёртки : Прогрессивная
Бит/(Пиксели*Кадры) : 0.221
Размер потока : 2,74 Гбайт (69%)
Библиотека кодирования : x264 core 114 r1900 60ef1f8
Настройки программы : cabac=1 / ref=9 / deblock=1:-1:0 / analyse=0x3:0x113 / me=umh / subme=9 / psy=1 / psy_rd=0.50:0.05 / mixed_ref=1 / me_range=32 / chroma_me=1 / trellis=1 / 8x8dct=1 / cqm=0 / deadzone=21,11 / fast_pskip=0 / chroma_qp_offset=-3 / threads=12 / sliced_threads=0 / nr=0 / decimate=1 / interlaced=0 / constrained_intra=0 / bframes=12 / b_pyramid=2 / b_adapt=2 / b_bias=0 / direct=3 / weightb=1 / open_gop=0 / weightp=2 / keyint=250 / keyint_min=24 / scenecut=40 / intra_refresh=0 / rc_lookahead=40 / rc=2pass / mbtree=0 / bitrate=4700 / ratetol=1.0 / qcomp=0.85 / qpmin=0 / qpmax=69 / qpstep=4 / cplxblur=20.0 / qblur=0.5 / vbv_maxrate=50000 / vbv_bufsize=62500 / nal_hrd=none / ip_ratio=1.40 / pb_ratio=1.10 / aq=1:1.20
Язык : English
Default : Да
Forced : Нет
Аудио #1
Идентификатор : 2
Формат : DTS
Формат/Информация : Digital Theater Systems
Режим : 16
Параметр Endianness формата : Big
Идентификатор кодека : A_DTS
Продолжительность : 1 ч. 25 м.
Вид битрейта : Постоянный
Битрейт : 1509 Кбит/сек
Каналы : 6 каналов
Расположение каналов : Front: L C R, Side: L R, LFE
Частота : 48,0 КГц
Битовая глубина : 24 бит
Метод сжатия : С потерями
Размер потока : 925 Мбайт (23%)
Заголовок : Original
Язык : English
Default : Нет
Forced : Нет
Аудио #2
Идентификатор : 3
Формат : AC-3
Формат/Информация : Audio Coding 3
Расширение режима : CM (complete main)
Параметр Endianness формата : Big
Идентификатор кодека : A_AC3
Продолжительность : 1 ч. 25 м.
Вид битрейта : Постоянный
Битрейт : 448 Кбит/сек
Каналы : 6 каналов
Расположение каналов : Front: L C R, Side: L R, LFE
Частота : 48,0 КГц
Битовая глубина : 16 бит
Метод сжатия : С потерями
Размер потока : 275 Мбайт (7%)
Заголовок : MVO
Язык : Russian
Default : Да
Forced : Нет
Текст
Идентификатор : 4
Формат : UTF-8
Идентификатор кодека : S_TEXT/UTF8
Идентификатор кодека/Информация : UTF-8 Plain Text
Язык : Russian
Default : Нет
Forced : Нет
Меню
00:00:00.000 : en:Chapter 1
00:05:15.666 : en:Chapter 2
00:09:00.625 : en:Chapter 3
00:11:53.540 : en:Chapter 4
00:17:47.250 : en:Chapter 5
00:21:43.333 : en:Chapter 6
00:26:33.833 : en:Chapter 7
00:30:01.333 : en:Chapter 8
00:36:27.916 : en:Chapter 9
00:42:13.666 : en:Chapter 10
00:46:57.375 : en:Chapter 11
00:52:20.500 : en:Chapter 12
00:56:46.583 : en:Chapter 13
01:03:35.416 : en:Chapter 14
01:10:03.125 : en:Chapter 15
01:15:09.416 : en:Chapter 16
01:19:07.250 : en:Chapter 17
01:21:31.666 : en:Chapter 18
Download / Скачать

Хотите скачать бесплатно? Зарегистрируйтесь на сайте (ссылка на регистрацию). Pirat.ca - самый быстрый торрент трекер в рунете!

Как скачивать  ·   Что такое торрент  ·   Рейтинг и ограничения

Securityuser

Флибустьер

Пост 18-Май-2014 21:58 (спустя 8 часов)

[Q] 

хм, будет время посмотрю, Спасибо за раздачу!
[Профиль]  [ЛС] 

lyokha

Корсар

1278

Пост 19-Май-2014 11:57 (спустя 13 часов)

[Q] 

Чтото интересненькое! Спасибо! aa

_________________
— Ты с этим сможешь жить? Ты обрекаешь другого человека на вечные оковы, а сам будешь веселиться, гулять и пить?
— Ммм, да. Это по мне!
© "Пираты Карибского моря 2: Сундук мертвеца" bt
[Профиль]  [ЛС] 

AAWolf ®

242

Пост 20-Май-2014 00:14 (спустя 12 часов)

[Q] 

536500хм, будет время посмотрю, Спасибо за раздачу!
не пожалеешь!

_________________
[Профиль]  [ЛС] 
Показать сообщения:    
Ответить на тему

Текущее время: Сегодня 16:14

Часовой пояс: GMT + 4



Вы не можете начинать темы
Вы не можете отвечать на сообщения
Вы не можете редактировать свои сообщения
Вы не можете удалять свои сообщения
Вы не можете голосовать в опросах
Вы не можете прикреплять файлы к сообщениям
Вы не можете скачивать файлы

▼ Вниз