ML
     
  Уважаемый Гость!
Вы можете поддержать проект и зарегистрироваться у наших партнеров - онлайн-стратегия MyLands. При регистрации в игре Вы получите код, который сможете активировать после регистрации на pirat.ca и получить 1000 дублонов.

Ваш код:
ba41f7961e0b4717aed6a401d955262223b8f6c4
 
     

Луни Тюнз: Снова в деле / Looney Tunes: Back in Action (Джо Данте / Joe Dante) [2003 г., Мультфильм, комедия, приключения, семейный, HDRip] Dub [Лицензия] + Original (Eng)

Ответить на тему
 
Автор
Сообщение

Пост 21-Май-2014 22:06

[Q] 

LPPI

-Луни Тюнз: Снова в деле / Looney Tunes: Back in Action-«The biggest animated adventure ever to hit real life»- Производство: США, Германия, Warner Bros., Baltimore Spring Creek Productions, Goldmann Pictures
Год выпуска: 2003 г.
Жанр: Мультфильм, комедия, приключения, семейный
Продолжительность: 01:31:38
Мировая премьера: 9 ноября 2003
Российская премьера: 18 декабря 2003, «Каро-Премьер»
Дата выхода DVD: 22 сентября 2011, «CP-Digital»-Перевод: Профессиональный (полное дублирование) [Лицензия]
Оригинальный аудиопоток: английский-Режиссер: Джо Данте / Joe Dante
В ролях: Брендан Фрейзер, Дженна Элфмэн, Стив Мартин, Тимоти Далтон, Хэзер Локлир, Джоан Кьюсак, Билл Голдберг, Дон Стэнтон, Дэн Стэнтон, Дик Миллер-Описание: Анимационные герои: Багс Банни и Даффи Дак — в реальной жизни! Поиски пропавшего человека и огромного мифического алмаза приводят Багса и Даффи сначала в Лас-Вегас, а затем в непроходимые джунгли Африки…- -Качество видео: HDRip
Контейнер: AVI
Видео кодек: XviD
Аудио кодек: AC3
Видео: 720x304 (2.37:1), 23.976 fps, ~1370 kbps avg, 0.26 bit/pixel
Аудио: 48 kHz, AC3 Dolby Digital, 3/2 (L,C,R,l,r) + LFE ch, ~448 kbps [Rus, Dub]
Аудио #2: 48 kHz, AC3 Dolby Digital, 3/2 (L,C,R,l,r) + LFE ch, ~448 kbps [Eng, Original]
Cубтитры: отсутствуют
General
Complete name : D:\Looney.Tunes.Back.in.Action.2003.HDRip.avi
Format : AVI
Format/Info : Audio Video Interleave
Format profile : OpenDML
File size : 1.46 GiB
Duration : 1h 31mn
Overall bit rate : 2 273 Kbps
Writing application : Lavf51.12.1
Video
ID : 0
Format : MPEG-4 Visual
Format profile : [email protected]
Format settings, BVOP : No
Format settings, QPel : No
Format settings, GMC : No warppoints
Format settings, Matrix : Default (H.263)
Codec ID : FMP4
Duration : 1h 31mn
Bit rate : 1 359 Kbps
Width : 720 pixels
Height : 304 pixels
Display aspect ratio : 2.35:1
Frame rate : 23.976 fps
Color space : YUV
Chroma subsampling : 4:2:0
Bit depth : 8 bits
Scan type : Progressive
Compression mode : Lossy
Bits/(Pixel*Frame) : 0.259
Stream size : 890 MiB (60%)
Writing library : Lavc51.40.4
Audio #1
ID : 1
Format : AC-3
Format/Info : Audio Coding 3
Mode extension : CM (complete main)
Format settings, Endianness : Big
Codec ID : 2000
Duration : 1h 31mn
Bit rate mode : Constant
Bit rate : 448 Kbps
Channel(s) : 6 channels
Channel positions : Front: L C R, Side: L R, LFE
Sampling rate : 48.0 KHz
Bit depth : 16 bits
Compression mode : Lossy
Stream size : 294 MiB (20%)
Alignment : Aligned on interleaves
Interleave, duration : 32 ms (0.77 video frame)
Interleave, preload duration : 32 ms
Audio #2
ID : 2
Format : AC-3
Format/Info : Audio Coding 3
Mode extension : CM (complete main)
Format settings, Endianness : Big
Codec ID : 2000
Duration : 1h 31mn
Bit rate mode : Constant
Bit rate : 448 Kbps
Channel(s) : 6 channels
Channel positions : Front: L C R, Side: L R, LFE
Sampling rate : 48.0 KHz
Bit depth : 16 bits
Compression mode : Lossy
Stream size : 294 MiB (20%)
Alignment : Aligned on interleaves
Interleave, duration : 32 ms (0.77 video frame)
Interleave, preload duration : 32 ms
Download / Скачать

Хотите скачать бесплатно? Зарегистрируйтесь на сайте (ссылка на регистрацию). Pirat.ca - самый быстрый торрент трекер в рунете!

Как скачивать  ·   Что такое торрент  ·   Рейтинг и ограничения

Пост 22-Май-2014 09:22 (спустя 11 часов)

Топик был перенесен из форума Зарубежное Кино (Трюм) в форум Зарубежные полнометражные мультфильмы
ara1205
 
Показать сообщения:    
Ответить на тему

Текущее время: Сегодня 14:47

Часовой пояс: GMT + 4



Вы не можете начинать темы
Вы не можете отвечать на сообщения
Вы не можете редактировать свои сообщения
Вы не можете удалять свои сообщения
Вы не можете голосовать в опросах
Вы не можете прикреплять файлы к сообщениям
Вы не можете скачивать файлы

▼ Вниз