ML
     
  Уважаемый Гость!
Вы можете поддержать проект и зарегистрироваться у наших партнеров - онлайн-стратегия MyLands. При регистрации в игре Вы получите код, который сможете активировать после регистрации на pirat.ca и получить 1000 дублонов.

Ваш код:
34514219cfad5497a1822ecc1269bea77988f9aa
 
     

Букашки. Приключение в Долине муравьев / Minuscule - La vallée des fourmis perdues (Хелен Жиро / Hélène Giraud, Томас Забо / Thomas Szabo) [2013 г., Мультфильм, приключения, семейный, WEB-DL]

Ответить на тему
 
Автор
Сообщение

Пост 25-Май-2014 21:04

[Q] 

LPPI

-Букашки. Приключение в Долине муравьев / Minuscule - La vallée des fourmis perdues-«Самые гигантские планы - у самых маленьких!»- Производство: Франция, Futurikon, Entre Chien et Loup, Futurikon Production II
Год выпуска: 2013 г.
Жанр: Мультфильм, приключения, семейный
Продолжительность: 01:24:42
Мировая премьера: 17 ноября 2013
Российская премьера: 29 мая 2014, «Каравелла DDC»-Перевод: Не требуется-Режиссер: Хелен Жиро / Hélène Giraud, Томас Забо / Thomas Szabo-Описание: Активные и любознательные черные муравьишки обнаруживают брошенную после пикника коробку с сахаром. Дружный отряд муравьишек вместе с Божьей коровкой решают переправить лакомство в муравейник. Но сладкая коробка уже успела нарушить спокойствие во всей долине, и свои планы на лакомство появились у других обитателей леса, в частности — у злобных красных муравьев-захватчиков. А, стало быть, на пути к заветной цели черным муравьишкам предстоит преодолеть массу опасностей и приключений.- -Качество видео: WEB-DL
Контейнер: AVI
Видео кодек: XviD
Аудио кодек: AC3
Видео: 720x304 (2.37:1), 25 fps, XviD build 50 ~2109 kbps avg, 0.39 bit/pixel
Аудио: 48 kHz, AC3 Dolby Digital, 2/0 (L,R) ch, ~192 kbps
Cубтитры: отсутствуют
General
Complete name : D:\Pr1kljuch3nie.v.D0line.murav1ev.2013.WEB-DLRip.1400MB.avi
Format : AVI
Format/Info : Audio Video Interleave
File size : 1.37 GiB
Duration : 1h 24mn
Overall bit rate : 2 312 Kbps
Writing application : VirtualDubMod 1.5.10.3 | www.virtualdub-fr.org || (build 2550/release)
Writing library : VirtualDubMod build 2550/release
Video
ID : 0
Format : MPEG-4 Visual
Format profile : Advanced [email protected]
Format settings, BVOP : 2
Format settings, QPel : No
Format settings, GMC : No warppoints
Format settings, Matrix : Custom
Codec ID : XVID
Codec ID/Hint : XviD
Duration : 1h 24mn
Bit rate : 2 110 Kbps
Width : 720 pixels
Height : 304 pixels
Display aspect ratio : 2.35:1
Frame rate : 25.000 fps
Color space : YUV
Chroma subsampling : 4:2:0
Bit depth : 8 bits
Scan type : Progressive
Compression mode : Lossy
Bits/(Pixel*Frame) : 0.386
Stream size : 1.25 GiB (91%)
Writing library : XviD 1.2.1 (UTC 2008-12-04)
Audio
ID : 1
Format : AC-3
Format/Info : Audio Coding 3
Mode extension : CM (complete main)
Format settings, Endianness : Big
Codec ID : 2000
Duration : 1h 24mn
Bit rate mode : Constant
Bit rate : 192 Kbps
Channel(s) : 2 channels
Channel positions : Front: L R
Sampling rate : 48.0 KHz
Bit depth : 16 bits
Compression mode : Lossy
Stream size : 116 MiB (8%)
Alignment : Split accross interleaves
Interleave, duration : 40 ms (1.00 video frame)
Interleave, preload duration : 500 ms
Download / Скачать

Хотите скачать бесплатно? Зарегистрируйтесь на сайте (ссылка на регистрацию). Pirat.ca - самый быстрый торрент трекер в рунете!

Как скачивать  ·   Что такое торрент  ·   Рейтинг и ограничения

Пост 25-Май-2014 22:29 (спустя 1 час 25 минут)

Топик был перенесен из форума Зарубежное Кино (Трюм) в форум Новинки (HD|DVD|BD| TV|SAT|PDTV| - Rips)
kugesan
 

Znoi

Флибустьер

1163

Пост 25-Май-2014 22:53 (спустя 1 час 48 минут)

[Q] 

Спасибо за релиз!
[Профиль]  [ЛС] 

Геннадий

Морской Волк

Пост 25-Май-2014 23:31 (спустя 37 минут)

[Q] 

смотрел трейлер понравился, забираю спасибо за труды!!!
[Профиль]  [ЛС] 

Oca98

Корсар

266

Пост 26-Май-2014 01:46 (спустя 2 часа 14 минут)

[Q] 

Здесь все серии, кто смотрел?

_________________
[Профиль]  [ЛС] 

linko22

Шкипер

Пост 26-Май-2014 06:18 (спустя 4 часа)

[Q] 

Я так думаю это полнометражка
[Профиль]  [ЛС] 

post_aleks

Шкипер

689

Пост 26-Май-2014 08:50 (спустя 2 часа 32 минуты)

[Q] 

У меня нарезка по сериям... С переводом названий.
Если надо кому - пишите в личку, раздачу сделаю.
P.S. Автору бочку. Спасибо!!!

_________________
Идеального мужчину можно встретить на каждом углу - сказал Бог, и создал Землю круглой...
[Профиль]  [ЛС] 

lex-sr

Корсар

Пост 26-Май-2014 17:02 (спустя 8 часов)

[Q] 

Чёт я не понял производитель франция а перевод не требуется мульт что без разговора?
[Профиль]  [ЛС] 

nitrate66

Шкипер

Пост 26-Май-2014 17:43 (спустя 41 минута)

[Q] 

насекомые говорят одинаково "понятно" на любом языке!

_________________
[Профиль]  [ЛС] 

LPPI ®

137531

Пост 27-Май-2014 07:02 (спустя 13 часов)

[Q] 

539529Чёт я не понял производитель франция а перевод не требуется мульт что без разговора?
Букашки же не разговаривают ag
[Профиль]  [ЛС] 

Urlhtml

Корсар

Пост 27-Май-2014 19:52 (спустя 12 часов)

[Q] 

Спасибо!!! Супер!
[Профиль]  [ЛС] 

Танюха10988

Гроза морей

Пост 01-Июн-2014 13:41 (спустя 4 дня)

[Q] 

Спасибо. Лови бочку.
[Профиль]  [ЛС] 

Euripus

Лоцман

Пост 01-Июн-2014 16:40 (спустя 2 часа 59 минут)

[Q] 

Позитивный мультик. Спасибо.
[Профиль]  [ЛС] 

ANDOKU

Шкипер

Пост 02-Июн-2014 12:49 (спустя 20 часов)

[Q] 

Лови бочку
[Профиль]  [ЛС] 

Red Corsair

Шкипер

105

Пост 05-Июн-2014 23:09 (спустя 3 дня)

[Q] 

Был вроде сериальчик такой лет 6 назад, это по нему полный метр сняли или просто все в кучу слепили?
[Профиль]  [ЛС] 

Nushka

Морской Волк

Пост 06-Июн-2014 21:14 (спустя 22 часа)

[Q] 

Дождались! Благодарю за труды!
[Профиль]  [ЛС] 

Ambeg

Корсар

Пост 11-Июн-2014 01:39 (спустя 4 дня)

[Q] 

по скринам вижу что слепили наверно то что было уже лет 6 назад.
Перевод не требуется там звуки природы очень позитивный мульт. Ня!
[Профиль]  [ЛС] 

terrex

Пост 11-Июн-2014 17:39 (спустя 16 часов)

[Q] 

Спасибо, ребенку понравилось )
[Профиль]  [ЛС] 

allergija

Штурман

Пост 16-Сен-2014 21:30 (спустя 3 месяца 5 дней)

[Q] 

Всем качать!!! Супер! !!!!!!!!!!!
[Профиль]  [ЛС] 

neponimai

Морской Волк

Пост 01-Окт-2014 21:44 (спустя 15 дней)

[Q] 

Автору респект!!! Лови бочку посмотрим)
[Профиль]  [ЛС] 
Показать сообщения:    
Ответить на тему

Текущее время: Сегодня 07:54

Часовой пояс: GMT + 4



Вы не можете начинать темы
Вы не можете отвечать на сообщения
Вы не можете редактировать свои сообщения
Вы не можете удалять свои сообщения
Вы не можете голосовать в опросах
Вы не можете прикреплять файлы к сообщениям
Вы не можете скачивать файлы

▼ Вниз