ML
     
  Уважаемый Гость!
Вы можете поддержать проект и зарегистрироваться у наших партнеров - онлайн-стратегия MyLands. При регистрации в игре Вы получите код, который сможете активировать после регистрации на pirat.ca и получить 1000 дублонов.

Ваш код:
a261790f23fb05d13d060bdee9cb70d1451a6d3d
 
     

Букашки. Приключение в Долине муравьев / Minuscule - La vallée des fourmis perdues (Хелен Жиро / Hélène Giraud, Томас Забо / Thomas Szabo) [2013 г., Мультфильм, приключения, семейный, WEB-DLRip-AVC]

Ответить на тему
 
Автор
Сообщение

Пост 26-Май-2014 19:14

[Q] 

Resident

-Букашки. Приключение в Долине муравьев / Minuscule - La vallée des fourmis perdues-- Производство: Франция, Futurikon, Entre Chien et Loup, Futurikon Production II
Год выпуска: 2013 г.
Жанр: Мультфильм, приключения, семейный
Продолжительность: 01:24:42
Мировая премьера: 17 ноября 2013
Российская премьера: 29 мая 2014, «Каравелла DDC»
Перевод: Не требуется
Режиссер: Хелен Жиро / Hélène Giraud, Томас Забо / Thomas Szabo-Описание: Активные и любознательные черные муравьишки обнаруживают брошенную после пикника коробку с сахаром. Дружный отряд муравьишек вместе с Божьей коровкой решают переправить лакомство в муравейник. Но сладкая коробка уже успела нарушить спокойствие во всей долине, и свои планы на лакомство появились у других обитателей леса, в частности — у злобных красных муравьев-захватчиков. А, стало быть, на пути к заветной цели черным муравьишкам предстоит преодолеть массу опасностей и приключений.-
Качество видео: WEB-DLRip-AVC
Контейнер: MKV
Видео кодек: H.264
Аудио кодек: AC3
Видео: AVC, 1024 x 432(2.35:1), 25 fps, ~1780 kbps, 0.161 bpp
Аудио: 48 kHz, AC3 Dolby Digital, 2/0 (L,R) ch, ~192 kbps
Cубтитры: отсутствуют
General
Complete name : W:\Pr1kljuch3nie.v.D0line.murav1ev.2013.WEB-DLRip-AVC.mkv
Format : Matroska
File size : 1.19 GiB
Duration : 1h 24mn
Overall bit rate : 2 012 Kbps
Encoded date : UTC 2014-05-26 07:11:51
Writing library : WonderShare Matroska Muxer
Video
ID : 1
Format : AVC
Format/Info : Advanced Video Codec
Format profile : [email protected]
Format settings, CABAC : No
Format settings, ReFrames : 1 frame
Muxing mode : Container [email protected]
Codec ID : V_MPEG4/ISO/AVC
Duration : 1h 24mn
Bit rate : 1 780 Kbps
Width : 1 024 pixels
Height : 432 pixels
Display aspect ratio : 2.35:1
Frame rate : 25.000 fps
Color space : YUV
Chroma subsampling : 4:2:0
Bit depth : 8 bits
Scan type : Progressive
Bits/(Pixel*Frame) : 0.161
Stream size : 1.05 GiB (88%)
Audio
ID : 2
Format : AC-3
Format/Info : Audio Coding 3
Mode extension : CM (complete main)
Codec ID : A_AC3
Duration : 1h 24mn
Bit rate mode : Constant
Bit rate : 192 Kbps
Channel(s) : 2 channels
Channel positions : Front: L R
Sampling rate : 48.0 KHz
Bit depth : 16 bits
Stream size : 116 MiB (10%)
Download / Скачать

Хотите скачать бесплатно? Зарегистрируйтесь на сайте (ссылка на регистрацию). Pirat.ca - самый быстрый торрент трекер в рунете!

Как скачивать  ·   Что такое торрент  ·   Рейтинг и ограничения

Пост 26-Май-2014 20:31 (спустя 1 час 16 минут)

Топик был перенесен из форума Зарубежное Кино (Трюм) в форум Новинки (HD|DVD|BD| TV|SAT|PDTV| - Rips)
kugesan
 

s_s

Гроза морей

Пост 29-Май-2014 22:33 (спустя 3 дня)

[Q] 

прикольно должно быть, спасибо:)

_________________
в себе самом добра со злом
[Профиль]  [ЛС] 

Golsergio

Флибустьер

Пост 31-Май-2014 09:13 (спустя 1 день 10 часов)

[Q] 

забавные букашки Одобрямс! спасибо Лови бочку
[Профиль]  [ЛС] 

Barskavkaz

Корсар

Пост 31-Май-2014 13:14 (спустя 4 часа)

[Q] 

смотрел уже кто то?!)

_________________
Д.Тк
[Профиль]  [ЛС] 

Naylo

Морской Волк

Пост 01-Июн-2014 16:34 (спустя 1 день 3 часа)

[Q] 

Божья коровка рулит!!!

_________________
[Профиль]  [ЛС] 

sqquirrell

Шкипер

Пост 02-Июн-2014 20:18 (спустя 1 день 3 часа)

[Q] 

обожаю этих букашек!! есть еще пара сезонов отпадных короткометражек. Всем качать!!!
[Профиль]  [ЛС] 

rider400

Лоцман

Пост 30-Июл-2014 00:39 (спустя 1 месяц 27 дней)

[Q] 

Прикол и смех.)))
[Профиль]  [ЛС] 
Показать сообщения:    
Ответить на тему

Текущее время: Сегодня 20:00

Часовой пояс: GMT + 4



Вы не можете начинать темы
Вы не можете отвечать на сообщения
Вы не можете редактировать свои сообщения
Вы не можете удалять свои сообщения
Вы не можете голосовать в опросах
Вы не можете прикреплять файлы к сообщениям
Вы не можете скачивать файлы

▼ Вниз