ML
     
  Уважаемый Гость!
Вы можете поддержать проект и зарегистрироваться у наших партнеров - онлайн-стратегия MyLands. При регистрации в игре Вы получите код, который сможете активировать после регистрации на pirat.ca и получить 1000 дублонов.

Ваш код:
f612af22ea70acf5cbe90707ac5a076d215f8f7f
 
     

Недетский мульт: Укуренные / Cheech & Chong's Animated Movie (Бренден Чэмберс Branden Chambers Эрик Д. Чэмберс Eric D. Chambers) [2013 г., Мультфильм, комедия, HDRip] MVO (Лицензия) + Original (Eng)

Ответить на тему
 
Автор
Сообщение

Пост 29-Май-2014 21:12

[Q] 

Resident

-Недетский мульт: Укуренные / Cheech & Chong's Animated Movie-- Производство: США, Big Vision Entertainment, Chambers Brothers Entertainment, Houston Curtis Pictures
Год выпуска: 2013 г.
Жанр: Мультфильм, комедия
Продолжительность: 01:23:20
Мировая премьера: 18 марта 2013
Перевод: Профессиональный (многоголосый, закадровый) [Лицензия]
Оригинальный аудиопоток: английский
Режиссер: Бренден Чэмберс Branden Chambers Эрик Д. Чэмберс Eric D. Chambers-В ролях: Йен Пфафф, Томми Чонг, Чич Марин-Описание: Это не вас глючит... Это их плющит! Легендарные торчки-шутнички Чич и Чонг снова с вами, - и это их первый улетный мультфильм! Ловите Кайф от их нереально ржачных выходок и классических скетчей. Вместе со своим корешем Бастером Тело-Крабом, Чич и Чонг - реальные "мастера укуренного трепа", так что готовьтесь ржать как миленькие... и требовать добавки!-
Качество видео: HDRip
Контейнер: AVI
Видео кодек: XviD
Аудио кодек: AC3
Видео: XviD, 1954 Кбит/с, 720x384, 23.976 fps, 0.295 bit / pix
Аудио: 48 kHz, AC3, 2 ch, 192 Кбит/с MVO
Аудио: 48 kHz, AC3, 2 ch, 192 Кбит/с (Original)
Cубтитры: отсутствуют
General
Complete name : W:\Cheech.&.Chong's.Animated.Movie.2013.XviD.HDRip.avi
Format : AVI
Format/Info : Audio Video Interleave
File size : 1.37 GiB
Duration : 1h 23mn
Overall bit rate : 2 353 Kbps
Writing application : VirtualDubMod 1.5.10.2 (build 2540/release)
Writing library : VirtualDubMod build 2540/release
Video
ID : 0
Format : MPEG-4 Visual
Format profile : Advanced [email protected]
Format settings, BVOP : Yes
Format settings, QPel : No
Format settings, GMC : No warppoints
Format settings, Matrix : Default (MPEG)
Codec ID : XVID
Codec ID/Hint : XviD
Duration : 1h 23mn
Bit rate : 1 955 Kbps
Width : 720 pixels
Height : 384 pixels
Display aspect ratio : 1.875
Frame rate : 23.976 fps
Color space : YUV
Chroma subsampling : 4:2:0
Bit depth : 8 bits
Scan type : Progressive
Bits/(Pixel*Frame) : 0.295
Stream size : 1.14 GiB (83%)
Writing library : XviD 1.2.1 (UTC 2008-12-04)
Audio #1
ID : 1
Format : AC-3
Format/Info : Audio Coding 3
Mode extension : CM (complete main)
Codec ID : 2000
Duration : 1h 23mn
Bit rate mode : Constant
Bit rate : 192 Kbps
Channel(s) : 2 channels
Channel positions : Front: L R
Sampling rate : 48.0 KHz
Bit depth : 16 bits
Stream size : 114 MiB (8%)
Alignment : Split accross interleaves
Interleave, duration : 42 ms (1.00 video frame)
Interleave, preload duration : 500 ms
Audio #2
ID : 2
Format : AC-3
Format/Info : Audio Coding 3
Mode extension : CM (complete main)
Codec ID : 2000
Duration : 1h 23mn
Bit rate mode : Constant
Bit rate : 192 Kbps
Channel(s) : 2 channels
Channel positions : Front: L R
Sampling rate : 48.0 KHz
Bit depth : 16 bits
Stream size : 114 MiB (8%)
Alignment : Split accross interleaves
Interleave, duration : 42 ms (1.00 video frame)
Interleave, preload duration : 500 ms
Download / Скачать

Хотите скачать бесплатно? Зарегистрируйтесь на сайте (ссылка на регистрацию). Pirat.ca - самый быстрый торрент трекер в рунете!

Как скачивать  ·   Что такое торрент  ·   Рейтинг и ограничения

Пост 30-Май-2014 02:17 (спустя 5 часов)

Топик был перенесен из форума Зарубежное Кино (Трюм) в форум Зарубежные полнометражные мультфильмы
erchine
 

GnomKa

Шкипер

Пост 01-Июн-2014 07:46 (спустя 2 дня 10 часов)

[Q] 

думаю весело провести время)

_________________
Человек человеку волк, а зомби зомби зомби
[Профиль]  [ЛС] 
Показать сообщения:    
Ответить на тему

Текущее время: Сегодня 00:24

Часовой пояс: GMT + 4



Вы не можете начинать темы
Вы не можете отвечать на сообщения
Вы не можете редактировать свои сообщения
Вы не можете удалять свои сообщения
Вы не можете голосовать в опросах
Вы не можете прикреплять файлы к сообщениям
Вы не можете скачивать файлы

▼ Вниз