ML
     
  Уважаемый Гость!
Вы можете поддержать проект и зарегистрироваться у наших партнеров - онлайн-стратегия MyLands. При регистрации в игре Вы получите код, который сможете активировать после регистрации на pirat.ca и получить 1000 дублонов.

Ваш код:
47bfc18b89c74e4ae0d974e9b6943639e2bff08e
 
     

Лего. Фильм / The Lego Movie (Фил Лорд / Phil Lord, Кристофер Миллер / Christopher Miller) [2014 г., Мультфильм, фэнтези, комедия, приключения, семейный, BDRip-AVC] Dub (iTunes Russia) + Sub (Rus, Eng) + Original (Eng)

Ответить на тему
 
Автор
Сообщение

Пост 29-Май-2014 21:38

[Q] 

LPPI

-Лего. Фильм / The Lego Movie- Производство: Австралия, США, Дания / Warner Bros., Village Roadshow Pictures, LEGO
Год выпуска: 2014 г.
Жанр: Мультфильм, фэнтези, комедия, приключения, семейный
Продолжительность: 01:40:33
Мировая премьера: 1 февраля 2014
Российская премьера: 27 февраля 2014, «Каро-Премьер»-Перевод: Профессиональный (полное дублирование) [iTunes Russia]
Оригинальный аудиопоток: английский-Режиссер: Фил Лорд / Phil Lord, Кристофер Миллер / Christopher Miller
В ролях: Крис Прэтт, Уилл Феррелл, Элизабет Бэнкс, Уилл Арнетт, Лиам Нисон, Морган Фриман, Элисон Бри, Дэвид Берроуз, Энтони Дэниелс, Чарли Дэй-Описание: Обычная лего-фигурка, ошибочно считающая себя фигуркой из элитного набора, соглашается присоединиться к походу против злого лего-диктатора, планирующего склеить вместе всю вселенную…- -Качество видео: BDRip-AVC
Контейнер: MKV
Видео кодек: H.264
Аудио кодек: AC3
Видео: 1024x426 (2.40:1), 2 444 Kbps, 23.976 fps, 0.234 bit/pix
Аудио: 384 Kbps, 6 ch, 48.0 KHz [Rus, Dub]
Аудио #2: 448 Kbps, 6 ch, 48.0 KHz [Eng, Original]
Cубтитры: Русский (full, forced), Английский (full, SDH)
Навигация по главам: Есть
General
Unique ID : 178131002242614208680682775560941041255 (0x8602C87AD5225E1BA1C4F950CCD57667)
Complete name : D:\Lego.Film.2014.BDRip-AVC.mkv
Format : Matroska
Format version : Version 2
File size : 2.30 GiB
Duration : 1h 40mn
Overall bit rate : 3 278 Kbps
Movie name : The Lego Movie (2014)
Encoded date : UTC 2014-05-29 09:33:13
Writing application : mkvmerge v6.9.1 ('Blue Panther') 64bit built on Apr 18 2014 18:23:38
Writing library : libebml v1.3.0 + libmatroska v1.4.1
Video
ID : 1
Format : AVC
Format/Info : Advanced Video Codec
Format profile : [email protected]
Format settings, CABAC : Yes
Format settings, ReFrames : 9 frames
Codec ID : V_MPEG4/ISO/AVC
Duration : 1h 40mn
Bit rate : 2 444 Kbps
Width : 1 024 pixels
Height : 426 pixels
Display aspect ratio : 2.40:1
Frame rate mode : Constant
Frame rate : 23.976 fps
Color space : YUV
Chroma subsampling : 4:2:0
Bit depth : 8 bits
Scan type : Progressive
Bits/(Pixel*Frame) : 0.234
Stream size : 1.67 GiB (73%)
Writing library : x264 core 116 r2044 392e762
Encoding settings : cabac=1 / ref=9 / deblock=1:-2:-2 / analyse=0x3:0x113 / me=umh / subme=10 / psy=1 / psy_rd=1.00:0.20 / mixed_ref=1 / me_range=32 / chroma_me=1 / trellis=2 / 8x8dct=1 / cqm=0 / deadzone=21,11 / fast_pskip=0 / chroma_qp_offset=-3 / threads=12 / sliced_threads=0 / nr=0 / decimate=0 / interlaced=0 / bluray_compat=0 / constrained_intra=0 / bframes=8 / b_pyramid=2 / b_adapt=2 / b_bias=0 / direct=3 / weightb=1 / open_gop=0 / weightp=2 / keyint=240 / keyint_min=23 / scenecut=40 / intra_refresh=0 / rc=2pass / mbtree=0 / bitrate=2444 / ratetol=1.0 / qcomp=0.60 / qpmin=0 / qpmax=69 / qpstep=4 / cplxblur=20.0 / qblur=0.5 / ip_ratio=1.40 / pb_ratio=1.30 / aq=1:1.00
Language : English
Default : Yes
Forced : No
Audio #1
ID : 2
Format : AC-3
Format/Info : Audio Coding 3
Mode extension : CM (complete main)
Format settings, Endianness : Big
Codec ID : A_AC3
Duration : 1h 40mn
Bit rate mode : Constant
Bit rate : 384 Kbps
Channel(s) : 6 channels
Channel positions : Front: L C R, Side: L R, LFE
Sampling rate : 48.0 KHz
Bit depth : 16 bits
Compression mode : Lossy
Stream size : 276 MiB (12%)
Language : Russian
Default : Yes
Forced : No
Audio #2
ID : 3
Format : AC-3
Format/Info : Audio Coding 3
Mode extension : CM (complete main)
Format settings, Endianness : Big
Codec ID : A_AC3
Duration : 1h 40mn
Bit rate mode : Constant
Bit rate : 448 Kbps
Channel(s) : 6 channels
Channel positions : Front: L C R, Side: L R, LFE
Sampling rate : 48.0 KHz
Bit depth : 16 bits
Compression mode : Lossy
Stream size : 322 MiB (14%)
Language : English
Default : No
Forced : No
Text #1
ID : 4
Format : UTF-8
Codec ID : S_TEXT/UTF8
Codec ID/Info : UTF-8 Plain Text
Title : Forced
Language : Russian
Default : Yes
Forced : No
Text #2
ID : 5
Format : UTF-8
Codec ID : S_TEXT/UTF8
Codec ID/Info : UTF-8 Plain Text
Title : Full
Language : Russian
Default : No
Forced : No
Text #3
ID : 6
Format : UTF-8
Codec ID : S_TEXT/UTF8
Codec ID/Info : UTF-8 Plain Text
Title : Full
Language : English
Default : No
Forced : No
Text #4
ID : 7
Format : UTF-8
Codec ID : S_TEXT/UTF8
Codec ID/Info : UTF-8 Plain Text
Title : SDH
Language : English
Default : No
Forced : No
Menu
00:00:00.000 : en:00:00:00.000
00:09:44.042 : en:00:09:44.042
00:18:18.389 : en:00:18:18.389
00:29:50.747 : en:00:29:50.747
00:38:48.034 : en:00:38:48.034
00:48:45.047 : en:00:48:45.047
00:57:49.424 : en:00:57:49.424
01:06:05.253 : en:01:06:05.253
01:16:24.205 : en:01:16:24.205
01:25:56.151 : en:01:25:56.151
01:32:57.322 : en:01:32:57.322
Download / Скачать

Хотите скачать бесплатно? Зарегистрируйтесь на сайте (ссылка на регистрацию). Pirat.ca - самый быстрый торрент трекер в рунете!

Как скачивать  ·   Что такое торрент  ·   Рейтинг и ограничения

Пост 30-Май-2014 09:21 (спустя 11 часов)

Топик был перенесен из форума Зарубежное Кино (Трюм) в форум Новинки (HD|DVD|BD| TV|SAT|PDTV| - Rips)
ara1205
 

hankypanky

Штурман

Пост 30-Май-2014 16:05 (спустя 18 часов)

[Q] 

это же надо такое описание сделать. уклончиво с оглядкой на росреалии
[Профиль]  [ЛС] 

Barskavkaz

Корсар

Пост 04-Июн-2014 19:55 (спустя 5 дней)

[Q] 

такой фигни я давно уже не видел))

_________________
Д.Тк
[Профиль]  [ЛС] 

bolobol

Корсар

110

Пост 13-Июн-2014 20:15 (спустя 9 дней)

[Q] 

не смотрел и даже и не собераюсь!!!! WTF!

_________________
[Профиль]  [ЛС] 

[email protected]_

Морской Волк

Пост 14-Июн-2014 00:45 (спустя 4 часа)

[Q] 

Лови бочку посмотрим что за бред

_________________
[Профиль]  [ЛС] 

mar7ian

Лоцман

Пост 14-Июн-2014 01:27 (спустя 41 минута)

[Q] 

А я посмотрел, посмеялся от души ))) Спасибо!!!

_________________
Разница между мной и сумасшедшим в том, что я не сумасшедший.
[Профиль]  [ЛС] 

zlotosalien

Флибустьер

Пост 19-Июн-2014 22:55 (спустя 5 дней)

[Q] 

Ха-ха-ха...а ни кто в трейлере музыку не узнал? Это ж A-Ha - Take On Me.
[Профиль]  [ЛС] 

ruslanicshe

Шкипер

Пост 20-Июн-2014 13:31 (спустя 14 часов)

[Q] 

уж фирма Lego для рекламы своей продукции денег не желеет!!!
[Профиль]  [ЛС] 
Показать сообщения:    
Ответить на тему

Текущее время: Сегодня 07:06

Часовой пояс: GMT + 4



Вы не можете начинать темы
Вы не можете отвечать на сообщения
Вы не можете редактировать свои сообщения
Вы не можете удалять свои сообщения
Вы не можете голосовать в опросах
Вы не можете прикреплять файлы к сообщениям
Вы не можете скачивать файлы

▼ Вниз