ML
     
  Уважаемый Гость!
Вы можете поддержать проект и зарегистрироваться у наших партнеров - онлайн-стратегия MyLands. При регистрации в игре Вы получите код, который сможете активировать после регистрации на pirat.ca и получить 1000 дублонов.

Ваш код:
a261790f23fb05d13d060bdee9cb70d1451a6d3d
 
     

Кот Гром и заколдованный дом / The House of Magic (Джереми Дегрусон, Бен Стассен / Jeremy Degruson, Ben Stassen) [2014 г., Мультфильм, семейный, HDRip] Dub [Лицензия] «Вольга»

Ответить на тему
 
Автор
Сообщение

Пост 14-Июн-2014 00:27

[Q] 

Resident

-Кот Гром и заколдованный дом / The House of Magic-- Производство: США, Бельгия / nWave Pictures, Studio Canal International, Anton Capital Entertainment (ACE)
Год выпуска: 2014 г.
Жанр: Мультфильм, семейный
Продолжительность: 01:25:28
Мировая премьера: 24 декабря 2013, ...
Российская премьера: 8 мая 2014, «Вольга»
Дата выхода DVD: 10 июня 2014, «Вольга», ...
Дата выхода Blu-Ray: 10 июня 2014, «Вольга», ...
Перевод: Профессиональный (полное дублирование) [Лицензия]
Режиссер: Джереми Дегрусон, Бен Стассен / Jeremy Degruson, Ben Stassen-В ролях: Александр Якин, Людмила Артемьева, Михаил Башкатов, Роман Юнусов, Федор Добронравов-Описание: Любопытный рыжий кот попадает в дом старого фокусника и узнает секрет его трюков. Так начинается его знакомство с учеными зверями и живыми игрушками, а также невероятные приключения полные юмора и опасностей.-
Качество видео: HDRip
Контейнер: AVI
Видео кодек: XviD
Аудио кодек: AC3
Видео: 720x400 (1.80:1), 24 fps, XviD build 50 ~1890 kbps avg, 0.27 bit/pixel
Аудио: 48 kHz, AC3 Dolby Digital, 6 ch, ~384 kbps
Cубтитры: отсутствуют
General
Complete name : W:\Kot.Grom.I.Zakoldovanniy.Dom.2013.D.HDRip.avi
Format : AVI
Format/Info : Audio Video Interleave
File size : 1.36 GiB
Duration : 1h 25mn
Overall bit rate : 2 285 Kbps
Writing application : VirtualDubMod 1.5.10.2 (build 2540/release)
Writing library : VirtualDubMod build 2540/release
Video
ID : 0
Format : MPEG-4 Visual
Format profile : Advanced [email protected]
Format settings, BVOP : Yes
Format settings, QPel : No
Format settings, GMC : No warppoints
Format settings, Matrix : Custom
Codec ID : XVID
Codec ID/Hint : XviD
Duration : 1h 25mn
Bit rate : 1 892 Kbps
Width : 720 pixels
Height : 400 pixels
Display aspect ratio : 16:9
Frame rate : 24.000 fps
Color space : YUV
Chroma subsampling : 4:2:0
Bit depth : 8 bits
Scan type : Progressive
Bits/(Pixel*Frame) : 0.274
Stream size : 1.13 GiB (83%)
Writing library : XviD 1.2.1 (UTC 2008-12-04)
Audio
ID : 1
Format : AC-3
Format/Info : Audio Coding 3
Mode extension : CM (complete main)
Codec ID : 2000
Duration : 1h 25mn
Bit rate mode : Constant
Bit rate : 384 Kbps
Channel(s) : 6 channels
Channel positions : Front: L C R, Side: L R, LFE
Sampling rate : 48.0 KHz
Bit depth : 16 bits
Stream size : 235 MiB (17%)
Alignment : Split accross interleaves
Interleave, duration : 42 ms (1.00 video frame)
Interleave, preload duration : 500 ms
Download / Скачать

Хотите скачать бесплатно? Зарегистрируйтесь на сайте (ссылка на регистрацию). Pirat.ca - самый быстрый торрент трекер в рунете!

Как скачивать  ·   Что такое торрент  ·   Рейтинг и ограничения

Пост 14-Июн-2014 10:07 (спустя 9 часов)

Топик был перенесен из форума Зарубежное Кино (Трюм) в форум Новинки (HD|DVD|BD| TV|SAT|PDTV| - Rips)
kugesan
 

Resident ®

45471

Пост 14-Июн-2014 10:47 (спустя 10 часов)

[Q] 

Вообще я сомневаюсь, что этот мультфильм постигнет участь быть самым кассовым мультфильмом за сезон или что-то в этом роде. Но внимания он непременно заслуживает. Хотя бы даже тем, что в нём присутствует милый пушистый котик, вредный кролик и очаровательная мышка. Жаль разве только, что по трейлеру можно было понять практически весь сюжет, зацепки никакой не оставили на сладенькое. Но мультик, конечно же, очень удачный.
Рыженького котика «теряют» хозяева и он остаётся на улице, пока не находит тёмный дом, от которого шарахаются даже местные сторожевые собаки. И всё-таки наш пушистый друг пробирается в таинственный особняк, но так ему совсем не рады его жители. А живут там вышеупомянутые кролик Джек (который, если честно, порой убивает своей бескомпромиссностью. Привет «Хранителям снов», кстати говоря, но там кролик был приятнее), мышка, добрый фокусник Лоренцо, который приютил кота и назвал его Громом, и его изобретения-игрушки, которые много чего умеют. Однако хорошее продлилось недолго и выясняется, что в скором времени дома может и не стать, если… сами посмотрите!
Графика мультфильма просто отличная, так и хочется протянуть руку и погладить красивых зверушек по шёрстке. Только вряд ли бы они были этому рады… Но вопрос уже не в этом, а в том, что аниматоры со своей работой справились превосходно.
Композитором тут выступил Рамин Джавади, который уже написал саундтрек к моему любимому Тихоокеанскому рубежу. Музыкальное оформление получилось очень загадочным и приглашающим в атмосферу доброй старой сказки, где свои загадки и тайны.
В заключение хочется сказать, что посмотреть мультфильм очень даже стоит. Мелкие недочётики описывать не буду, так как картина от них хуже не становится: взрослые поймут, а дети просто не обратят внимания. Всем приятного просмотра.

_________________

Раздаю с 00:00 до 04:00
[Профиль]  [ЛС] 

temniy-lord

Морской Волк

Пост 16-Июн-2014 11:14 (спустя 2 дня)

[Q] 

посмотрим))))

_________________
[Профиль]  [ЛС] 

temniy-lord

Морской Волк

Пост 23-Июн-2014 13:01 (спустя 7 дней)

[Q] 

класс! Лови бочку Спасибо!!!

_________________
[Профиль]  [ЛС] 

лысый 9999

Морской Волк

Пост 23-Июн-2014 15:25 (спустя 2 часа 23 минуты)

[Q] 

хороший мульт ))) Спасибо!!!
[Профиль]  [ЛС] 

max213

Лоцман

Пост 23-Июн-2014 16:42 (спустя 1 час 17 минут)

[Q] 

Спасибо Лови бочку
[Профиль]  [ЛС] 

alex_dry

Гроза морей

Пост 23-Июн-2014 22:21 (спустя 5 часов)

[Q] 

Спасибо, прикольный мульт!
[Профиль]  [ЛС] 

alexsey

Корсар

77

Пост 17-Июл-2014 01:40 (спустя 23 дня)

[Q] 

мне понравилось, спасибо!!!!!!!!!
[Профиль]  [ЛС] 

masany82

Шкипер

Пост 17-Июл-2014 03:09 (спустя 1 час 28 минут)

[Q] 

по описаниям стоит посмотреть?
[Профиль]  [ЛС] 

Пост 31-Июл-2014 19:53 (спустя 14 дней)

Топик был перенесен из форума Новинки (HD|DVD|BD| TV|SAT|PDTV| - Rips) в форум Зарубежные полнометражные мультфильмы
kugesan
 
Показать сообщения:    
Ответить на тему

Текущее время: Сегодня 20:03

Часовой пояс: GMT + 4



Вы не можете начинать темы
Вы не можете отвечать на сообщения
Вы не можете редактировать свои сообщения
Вы не можете удалять свои сообщения
Вы не можете голосовать в опросах
Вы не можете прикреплять файлы к сообщениям
Вы не можете скачивать файлы

▼ Вниз