ML
     
  Уважаемый Гость!
Вы можете поддержать проект и зарегистрироваться у наших партнеров - онлайн-стратегия MyLands. При регистрации в игре Вы получите код, который сможете активировать после регистрации на pirat.ca и получить 1000 дублонов.

Ваш код:
9cfe162481db953a6549f32179d7b3900b8b8643
 
     

Лего. Фильм / The Lego Movie (Фил Лорд / Phil Lord, Кристофер Миллер / Christopher Miller) [2014 г., Мультфильм, фэнтези, комедия, приключения, семейный, HDRip] Dub (Rus) + Dub (Ukr) «CP Дистрибуция»

Ответить на тему
 
Автор
Сообщение

Пост 14-Июн-2014 11:50

[Q] 

Resident

-Лего. Фильм / The Lego Movie-- Производство: Австралия, США, Дания / Warner Bros., Village Roadshow Pictures, LEGO
Год выпуска: 2014 г.
Жанр: Мультфильм, фэнтези, комедия, приключения, семейный
Продолжительность: 01:40:35
Мировая премьера: 1 февраля 2014
Российская премьера: 27 февраля 2014, «Каро-Премьер»
Релиз на DVD: 19 июня 2014, «CP Дистрибуция»
Релиз на Blu-Ray:19 июня 2014, «CP Дистрибуция»
Перевод: Профессиональный (полное дублирование) [Rus (Лицензия)]
Перевод 2: Профессиональный (полное дублирование) [Ukr (Лицензия)]
Режиссер: Фил Лорд / Phil Lord, Кристофер Миллер / Christopher Miller-В ролях: Крис Прэтт, Уилл Феррелл, Элизабет Бэнкс, Уилл Арнетт, Лиам Нисон, Морган Фриман, Элисон Бри, Дэвид Берроуз, Энтони Дэниелс, Чарли Дэй-Описание: Обычная лего-фигурка, ошибочно считающая себя фигуркой из элитного набора, соглашается присоединиться к походу против злого лего-диктатора, планирующего склеить вместе всю вселенную…-
Качество видео: HDRip
Контейнер: AVI
Видео кодек: XviD
Аудио кодек: AC3
Видео: 720x304 (2.37:1), 23.976 fps, XviD build 50 ~2010 kbps avg, 0.383 bit/pixel
Аудио: 48 kHz, AC3 Dolby Digital, 3/2 (L,C,R,l,r) + LFE ch, ~448 kbps rus
Аудио 2: 48 kHz, AC3 Dolby Digital, 3/2 (L,C,R,l,r) + LFE ch, ~448 kbps ukr
Cубтитры: отсутствуют
General
Complete name : W:\The.Lego.Movie.2014.D.HDRip.avi
Format : AVI
Format/Info : Audio Video Interleave
File size : 2.05 GiB
Duration : 1h 40mn
Overall bit rate : 2 919 Kbps
Movie name : The.Lego.Movie.2014.D.HDRip
Writing application : VirtualDubMod 1.5.10.2 (build 2540/release)
Video
ID : 0
Format : MPEG-4 Visual
Format profile : Advanced [email protected]
Format settings, BVOP : Yes
Format settings, QPel : No
Format settings, GMC : No warppoints
Format settings, Matrix : Custom
Codec ID : XVID
Codec ID/Hint : XviD
Duration : 1h 40mn
Bit rate : 2 010 Kbps
Width : 720 pixels
Height : 304 pixels
Display aspect ratio : 2.35:1
Frame rate : 23.976 fps
Color space : YUV
Chroma subsampling : 4:2:0
Bit depth : 8 bits
Scan type : Progressive
Bits/(Pixel*Frame) : 0.383
Stream size : 1.41 GiB (69%)
Writing library : XviD 1.2.1 (UTC 2008-12-04)
Audio #1
ID : 1
Format : AC-3
Format/Info : Audio Coding 3
Mode extension : CM (complete main)
Codec ID : 2000
Duration : 1h 40mn
Bit rate mode : Constant
Bit rate : 448 Kbps
Channel(s) : 6 channels
Channel positions : Front: L C R, Side: L R, LFE
Sampling rate : 48.0 KHz
Bit depth : 16 bits
Stream size : 322 MiB (15%)
Alignment : Split accross interleaves
Interleave, duration : 42 ms (1.00 video frame)
Interleave, preload duration : 500 ms
Audio #2
ID : 2
Format : AC-3
Format/Info : Audio Coding 3
Mode extension : CM (complete main)
Codec ID : 2000
Duration : 1h 40mn
Bit rate mode : Constant
Bit rate : 448 Kbps
Channel(s) : 6 channels
Channel positions : Front: L C R, Side: L R, LFE
Sampling rate : 48.0 KHz
Bit depth : 16 bits
Stream size : 321 MiB (15%)
Alignment : Split accross interleaves
Interleave, duration : 42 ms (1.00 video frame)
Interleave, preload duration : 500 ms
Download / Скачать

Хотите скачать бесплатно? Зарегистрируйтесь на сайте (ссылка на регистрацию). Pirat.ca - самый быстрый торрент трекер в рунете!

Как скачивать  ·   Что такое торрент  ·   Рейтинг и ограничения

Пост 14-Июн-2014 12:35 (спустя 45 минут)

Топик был перенесен из форума Зарубежное Кино (Трюм) в форум Новинки (HD|DVD|BD| TV|SAT|PDTV| - Rips)
kugesan
 

butyas

Корсар

Пост 14-Июн-2014 14:48 (спустя 2 часа 58 минут)

[Q] 

Спасибо.Детям качну.
[Профиль]  [ЛС] 

Пост 31-Июл-2014 20:24 (спустя 1 месяц 17 дней)

Топик был перенесен из форума Новинки (HD|DVD|BD| TV|SAT|PDTV| - Rips) в форум Зарубежные полнометражные мультфильмы
kugesan
 
Показать сообщения:    
Ответить на тему

Текущее время: Сегодня 06:00

Часовой пояс: GMT + 4



Вы не можете начинать темы
Вы не можете отвечать на сообщения
Вы не можете редактировать свои сообщения
Вы не можете удалять свои сообщения
Вы не можете голосовать в опросах
Вы не можете прикреплять файлы к сообщениям
Вы не можете скачивать файлы

▼ Вниз