ML
     
  Уважаемый Гость!
Вы можете поддержать проект и зарегистрироваться у наших партнеров - онлайн-стратегия MyLands. При регистрации в игре Вы получите код, который сможете активировать после регистрации на pirat.ca и получить 1000 дублонов.

Ваш код:
5f4e94775bc0501caff7b254e79328d304c817d9
 
     

Лего. Фильм / The Lego Movie (Фил Лорд / Phil Lord, Кристофер Миллер / Christopher Miller) [2014 г., Мультфильм, фэнтези, комедия, приключения, семейный, HDRip] Dub (Лицензия) «CP Дистрибуция»

Ответить на тему
 
Автор
Сообщение

Пост 14-Июн-2014 12:45

[Q] 

LPPI

-Лего. Фильм / The Lego Movie- Производство: Австралия, США, Дания / Warner Bros., Village Roadshow Pictures, LEGO
Год выпуска: 2014 г.
Жанр: Мультфильм, фэнтези, комедия, приключения, семейный
Продолжительность: 01:40:35
Мировая премьера: 1 февраля 2014
Российская премьера: 27 февраля 2014, «Каро-Премьер»
Дата выхода DVD: 19 июня 2014, «CP Дистрибуция»
Дата выхода Blu-Ray: 19 июня 2014, «CP Дистрибуция»
Перевод: Профессиональный (полное дублирование) [Лицензия]-Режиссер: Фил Лорд / Phil Lord, Кристофер Миллер / Christopher Miller
В ролях: Крис Прэтт, Уилл Феррелл, Элизабет Бэнкс, Уилл Арнетт, Лиам Нисон, Морган Фриман, Элисон Бри, Дэвид Берроуз, Энтони Дэниелс, Чарли Дэй-Описание: Обычная лего-фигурка, ошибочно считающая себя фигуркой из элитного набора, соглашается присоединиться к походу против злого лего-диктатора, планирующего склеить вместе всю вселенную…- -Качество видео: HDRip
Контейнер: AVI
Видео кодек: XviD
Аудио кодек: AC3
Видео: 720x304 (2.37:1), 23.976 fps, XviD build 50 ~1623 kbps avg, 0.31 bit/pixel
Аудио: 48 kHz, AC3 Dolby Digital, 3/2 (L,C,R,l,r) + LFE ch, ~448 kbps
Cубтитры: отсутствуют
General
Complete name : C:\Users\Ivan\Desktop\The.Lego.Movie.2014.D.HDRip.avi
Format : AVI
Format/Info : Audio Video Interleave
File size : 1.46 GiB
Duration : 1h 40mn
Overall bit rate : 2 081 Kbps
Writing application : VirtualDubMod 1.5.10.3 | www.virtualdub-fr.org || (build 2550/release)
Writing library : VirtualDubMod build 2550/release
Video
ID : 0
Format : MPEG-4 Visual
Format profile : Advanced [email protected]
Format settings, BVOP : 1
Format settings, QPel : No
Format settings, GMC : No warppoints
Format settings, Matrix : Default (MPEG)
Codec ID : XVID
Codec ID/Hint : XviD
Duration : 1h 40mn
Bit rate : 1 624 Kbps
Width : 720 pixels
Height : 304 pixels
Display aspect ratio : 2.35:1
Frame rate : 23.976 fps
Color space : YUV
Chroma subsampling : 4:2:0
Bit depth : 8 bits
Scan type : Progressive
Compression mode : Lossy
Bits/(Pixel*Frame) : 0.309
Stream size : 1.14 GiB (78%)
Writing library : XviD 1.2.1 (UTC 2008-12-04)
Audio
ID : 1
Format : AC-3
Format/Info : Audio Coding 3
Mode extension : CM (complete main)
Format settings, Endianness : Big
Codec ID : 2000
Duration : 1h 40mn
Bit rate mode : Constant
Bit rate : 448 Kbps
Channel(s) : 6 channels
Channel positions : Front: L C R, Side: L R, LFE
Sampling rate : 48.0 KHz
Bit depth : 16 bits
Compression mode : Lossy
Stream size : 322 MiB (22%)
Alignment : Split accross interleaves
Interleave, duration : 42 ms (1.00 video frame)
Interleave, preload duration : 500 ms
Download / Скачать

Хотите скачать бесплатно? Зарегистрируйтесь на сайте (ссылка на регистрацию). Pirat.ca - самый быстрый торрент трекер в рунете!

Как скачивать  ·   Что такое торрент  ·   Рейтинг и ограничения

Пост 14-Июн-2014 15:04 (спустя 2 часа 18 минут)

Топик был перенесен из форума Зарубежное Кино (Трюм) в форум Новинки (HD|DVD|BD| TV|SAT|PDTV| - Rips)
kugesan
 

Dypa4ek

Морской Волк

Пост 15-Июн-2014 20:19 (спустя 1 день 7 часов)

[Q] 

Клёвый фильм! мне понравился!

_________________
[Профиль]  [ЛС] 

dambrina

Флибустьер

Пост 22-Июн-2014 01:25 (спустя 6 дней)

[Q] 

Спасибо!!!
[Профиль]  [ЛС] 

alex1372

Штурман

Пост 22-Июн-2014 21:51 (спустя 20 часов)

[Q] 

Пиратка рулит! Посмотрим и оценим
[Профиль]  [ЛС] 

Alex131

Шкипер

Пост 28-Июн-2014 23:01 (спустя 6 дней)

[Q] 

спасибо Спасибо!!!
[Профиль]  [ЛС] 

bolobol

Корсар

110

Пост 29-Июн-2014 13:06 (спустя 14 часов)

[Q] 

даже качать не буду!!! не переношу лего! Автору респект!!! за релиз

_________________
[Профиль]  [ЛС] 

k_2

Шкипер

Пост 10-Июл-2014 12:47 (спустя 10 дней)

[Q] 

Автору респект!!! Пиратка рулез!!!
[Профиль]  [ЛС] 

Пост 31-Июл-2014 20:02 (спустя 21 день)

Топик был перенесен из форума Новинки (HD|DVD|BD| TV|SAT|PDTV| - Rips) в форум Зарубежные полнометражные мультфильмы
kugesan
 

Kung-fu Cat

Морской Волк

Пост 11-Сен-2014 00:14 (спустя 2 месяца)

[Q] 

Думала, будет скучно на квадратненьких смотреть. Ан нет, зацепило!

_________________
[Профиль]  [ЛС] 

dambrina

Флибустьер

Пост 30-Окт-2014 23:51 (спустя 1 месяц 18 дней)

[Q] 

или не для моего возраста или бред какой-то на 3 минуты хватило
[Профиль]  [ЛС] 
Показать сообщения:    
Ответить на тему

Текущее время: Сегодня 15:35

Часовой пояс: GMT + 4



Вы не можете начинать темы
Вы не можете отвечать на сообщения
Вы не можете редактировать свои сообщения
Вы не можете удалять свои сообщения
Вы не можете голосовать в опросах
Вы не можете прикреплять файлы к сообщениям
Вы не можете скачивать файлы

▼ Вниз