ML
     
  Уважаемый Гость!
Вы можете поддержать проект и зарегистрироваться у наших партнеров - онлайн-стратегия MyLands. При регистрации в игре Вы получите код, который сможете активировать после регистрации на pirat.ca и получить 1000 дублонов.

Ваш код:
fcd618d94adc1456bccbde5047c9cd0930e4ae4d
 
     

Альфа и Омега 3 / Alpha and Omega 3: The Great Wolf Games (Ричард Рич / Richard Rich) [2014 г., Мультфильм, комедия, приключения, семейный, HDRip] DVO

Ответить на тему
 
Автор
Сообщение

Пост 16-Июн-2014 14:55

[Q] 

Resident

- Альфа и Омега 3 / Alpha and Omega 3: The Great Wolf Games-- Производство: США, Crest Animation Productions
Режиссер: Ричард Рич / Richard Rich
Жанр: Мультфильм, комедия, приключения, семейный
Год выпуска: 2014 г.
Продолжительность: 00:45:03
Мировая премьера: 25 марта 2014, ...
Перевод: Любительский (двухголосый, закадровый) [rtys]
Роли озвучивали: Бен Дискин, Кейт Хиггинс, Блэки Роуз, Линдсей Торренс, Лиза Уэст, Трэйси Пфау, Бил Лэйдер, Шон Жерардо-Описание: Маленькие и отважные волчата решили устроить соревнования между собой. Они сумели включить в соревнования несколько различных видов спорта, таких как бег, бег с препятствиями и другие виды спорта из программы лёгкой атлетики. Волчата поделились на команды и начали играть, все знают, что победа достанется тем, кто больше всех старается. Все участники соревнований дружны между собой, никто никого не подставляет и соревнуется честно. Эта интересная картина даёт зрителям только положительные эмоции, она рассчитана на детей дошкольного возраста, им интересно будет посмотреть на то, как дружно и весело соревнуются юные волчата. Все выкладываются на полную мощь, но кто-то готов лучше, а кто-то хуже. Пусть победит сильнейший, под таким девизом проходят эти соревнования.-Сэмпл IMDB КиноПоиск
Качество видео: HDRip
Контейнер: AVI
Видео кодек: XviD
Аудио кодек: AC3
Видео: XviD, 1779 Кбит/с, 720x400, 23.976 fps, 0.258 bit / pix
Аудио: 48 kHz, AC3, 6 ch, 384 Кбит/с DVO
Cубтитры: отсутствуют
General
Complete name : W:\Alpha.And.Omega.3.2014.L2.HDRip.avi
Format : AVI
Format/Info : Audio Video Interleave
File size : 700 MiB
Duration : 45mn 3s
Overall bit rate : 2 171 Kbps
Writing application : VirtualDubMod 1.5.10.3 | www.virtualdub-fr.org || (build 2550/release)
Writing library : VirtualDubMod build 2550/release
Video
ID : 0
Format : MPEG-4 Visual
Format profile : Advanced [email protected]
Format settings, BVOP : Yes
Format settings, QPel : No
Format settings, GMC : No warppoints
Format settings, Matrix : Custom
Codec ID : XVID
Codec ID/Hint : XviD
Duration : 45mn 3s
Bit rate : 1 779 Kbps
Width : 720 pixels
Height : 400 pixels
Display aspect ratio : 16:9
Frame rate : 23.976 fps
Color space : YUV
Chroma subsampling : 4:2:0
Bit depth : 8 bits
Scan type : Progressive
Bits/(Pixel*Frame) : 0.258
Stream size : 573 MiB (82%)
Writing library : XviD 1.2.1 (UTC 2008-12-04)
Audio
ID : 1
Format : AC-3
Format/Info : Audio Coding 3
Mode extension : CM (complete main)
Codec ID : 2000
Duration : 45mn 0s
Bit rate mode : Constant
Bit rate : 384 Kbps
Channel(s) : 6 channels
Channel positions : Front: L C R, Side: L R, LFE
Sampling rate : 48.0 KHz
Bit depth : 16 bits
Stream size : 124 MiB (18%)
Alignment : Split accross interleaves
Interleave, duration : 42 ms (1.00 video frame)
Interleave, preload duration : 500 ms
Download / Скачать

Хотите скачать бесплатно? Зарегистрируйтесь на сайте (ссылка на регистрацию). Pirat.ca - самый быстрый торрент трекер в рунете!

Как скачивать  ·   Что такое торрент  ·   Рейтинг и ограничения

Дядя Витя

53951

Пост 16-Июн-2014 15:05 (спустя 9 минут)

[Q] 

Всем качать!!!

_________________
?
[Профиль]  [ЛС] 

alexey3312

Флибустьер

398

Пост 17-Июн-2014 23:36 (спустя 1 день 8 часов)

[Q] 

Уж больно у них какие то морды приторные.... За труды спасибо.

_________________
Металлисты - это самый развитой и передовой класс, и никто не может отрицать, что это и есть передовой отряд всего пролетариата. В.И. Ленин
[Профиль]  [ЛС] 

MouseEx

Шкипер

Пост 18-Июн-2014 22:21 (спустя 22 часа)

[Q] 

Когда я увидела эту раздачу, сначала недоумевала, как же я так пропустила другие части, ведь если уже третья, значит вполне достойное. Но! Это просто ужас. Нарисовано на от...ись. Если ЭТО катили в кинотеатрах и кто-то заплатил деньги и смотрел - мне их отчаянно жаль. Это невыносимо, глаза кровоточат, мозг отказывается принимать тот факт, что ТАКОЕ делают в наше время. Даже грошовые флешовые мультики смотрятся красиво по сравнению с этим "перлом". Если предыдущие части были так же омерзительно нарисованы, кто и под каким таким дулом продолжает это смотреть? Благо у меня ребенку всего три года, я вырубила на четвертой минуте и сплясала ему танец "этот мультик что-то заглючил, а давай мы сейчас включим тот, который не глючит!". Закидайте меня тапками за резкость, но никогда, слышите, НИКОГДА не показывайте такие омерзительные поделки своим детям!
Ой как стыдно-то... Отказать

_________________
As long as a single of us stands we are legion. /Kain/
[Профиль]  [ЛС] 

Пост 31-Июл-2014 20:24 (спустя 1 месяц 12 дней)

Топик был перенесен из форума Новинки (HD|DVD|BD| TV|SAT|PDTV| - Rips) в форум Зарубежные полнометражные мультфильмы
kugesan
 
Показать сообщения:    
Ответить на тему

Текущее время: Сегодня 12:53

Часовой пояс: GMT + 4



Вы не можете начинать темы
Вы не можете отвечать на сообщения
Вы не можете редактировать свои сообщения
Вы не можете удалять свои сообщения
Вы не можете голосовать в опросах
Вы не можете прикреплять файлы к сообщениям
Вы не можете скачивать файлы

▼ Вниз