ML
     
  Уважаемый Гость!
Вы можете поддержать проект и зарегистрироваться у наших партнеров - онлайн-стратегия MyLands. При регистрации в игре Вы получите код, который сможете активировать после регистрации на pirat.ca и получить 1000 дублонов.

Ваш код:
0af2e2107bc9b5dd5ac2c09f9fc25e1a77c43887
 
     

Джек - Механическое Сердце / Jack and the Cuckoo-Clock Heart (Стефан Берла / Stéphane Berla, ...) [2013 г., мультфильм, мюзикл, фэнтези, драма, мелодрама, приключения, ... BDRip AVC] MVO (AlexFilm) + Original (Fre, Eng) + Sub (Rus)

Ответить на тему
 
Автор
Сообщение

Пост 17-Июн-2014 23:26

[Q] 

kugesan

-Джек - Механическое Сердце / Jack and the Cuckoo-Clock Heart -- Производство: Франция, Бельгия
Жанр: мультфильм, мюзикл, фэнтези, драма, мелодрама, приключения, ...
Год выпуска: 2013 г.-Премьера (мир): 17 ноября 2013, ...-Релиз:
Перевод: Профессиональный (многоголосый, закадровый)
Оригинальный аудиопоток: французский-Над релизом работали:
Автор перевода: Doctor Joker и MartinaG
Озвучка: Татьяна Манетина, Анна Тух, Михаил Суслов, Константин Погодаев, Роман Сопко
Монтаж и сведение: Михаил Шорыгин-Режиссер: Стефан Берла / Stéphane Berla, Матиас Мальзьё / Mathias Malzieu, ...-В ролях: Матиас Мальзьё, Оливия Руис, Гран Кор Маляд, Жан Рошфор, Росси де Пальма, Babet, Мари Винсент, Эмили Луазо, Артур Х., Дани, ...-Описание:
Джек родился в Эдинбурге, в «самый холодный день на свете», и сердце его мгновенно оледенело. Брошенного матерью мальчика усыновляет акушерка-волшебница, Докторша Мадлен. Она вставляет ему в грудь часы, которые помогают сердцу биться, но влюбляться Джеку нельзя — такого пылкого чувства хрупкая сердечная механика не выдержит. Однако подросший Джек невольно нарушает запрет, увидев на прогулке маленькую уличную певицу…-Качество видео: BDRip AVC
Контейнер: MKV
Видео кодек: AVC [email protected]
Аудио кодек: AC-3 / MP2
Видео: AVC at 2294 Кбит/сек: 1152 x 648 (1.778) at 24.000 fps
Аудио Rus: AC-3 at 384 Кбит/сек: 6 каналов, 48,0 КГц |AlexFilm|
Аудио Eng: AC-3 at 384 Кбит/сек: 6 каналов, 48,0 КГц |Dubbing|
Аудио Fre: AC-3 at 448 Кбит/сек: 6 каналов, 48,0 КГц |Original|
Cубтитры: русские (только на песни)
Формат: SoftSub (SSA/ASS) [отключаемые]
- -
Код:
Общее
Уникальный идентификатор                 : 230478396007914206214771622777978072295 (0xAD648641BD31C2EA9FBBFFB54A53ACE7)
Полное имя                               : E:\РАЗДАЧА\Films\Jack.et.la.mécanique.du.coeur.2013.BDRip.AlexFilm.mkv
Формат                                   : Matroska
Версия формата                           : Version 4 / Version 2
Размер файла                             : 2,32 Гбайт
Продолжительность                        : 1 ч. 32 м.
Общий поток                              : 3582 Кбит/сек
Дата кодирования                         : UTC 2014-08-24 18:52:56
Программа кодирования                    : mkvmerge v6.2.0 ('Promised Land') built on Apr 28 2013 12:22:01
Библиотека кодирования                   : libebml v1.3.0 + libmatroska v1.4.0
Attachment                               : Yes
Видео
Идентификатор                            : 1
Формат                                   : AVC
Формат/Информация                        : Advanced Video Codec
Профиль формата                          : [email protected]
Параметр CABAC формата                   : Да
Параметр ReFrames формата                : 11 кадров
Идентификатор кодека                     : V_MPEG4/ISO/AVC
Продолжительность                        : 1 ч. 32 м.
Битрейт                                  : 2294 Кбит/сек
Ширина                                   : 1152 пикселя
Высота                                   : 648 пикселей
Соотношение сторон                       : 16:9
Режим частоты кадров                     : Постоянный
Частота кадров                           : 24,000 кадра/сек
Цветовое пространство                    : YUV
Субдискретизация насыщенности            : 4:2:0
Битовая глубина                          : 8 бит
Тип развёртки                            : Прогрессивная
Бит/(Пиксели*Кадры)                      : 0.128
Размер потока                            : 1,48 Гбайт (64%)
Заголовок                                : NTSC, 1152x648 (1,778:1), BDRip-AVC 648p - tRuAVC & Multfilmy [DFCbit]
Библиотека кодирования                   : x264 core 142 r2453kMod ea0ca51
Настройки программы                      : cabac=1 / ref=11 / deblock=1:-2:-2 / analyse=0x3:0x133 / me=umh / subme=11 / psy=1 / fade_compensate=0.00 / psy_rd=0.63:0.00 / mixed_ref=1 / me_range=32 / chroma_me=1 / trellis=2 / 8x8dct=1 / cqm=0 / deadzone=21,11 / fast_pskip=0 / chroma_qp_offset=-2 / threads=12 / lookahead_threads=3 / sliced_threads=0 / nr=0 / decimate=1 / interlaced=0 / bluray_compat=0 / constrained_intra=0 / fgo=0 / bframes=13 / b_pyramid=2 / b_adapt=2 / b_bias=0 / direct=1 / weightb=1 / open_gop=0 / weightp=2 / keyint=250 / keyint_min=23 / scenecut=40 / intra_refresh=0 / rc_lookahead=70 / rc=crf / mbtree=0 / crf=17.4699 / qcomp=0.81 / qpmin=0 / qpmax=69 / qpstep=4 / vbv_maxrate=50000 / vbv_bufsize=62500 / crf_max=0.0 / nal_hrd=none / filler=0 / ip_ratio=1.40 / pb_ratio=1.30 / aq=3:0.90
Язык                                     : French
Default                                  : Да
Forced                                   : Нет
Основные цвета                           : BT.709
Характеристики трансфера                 : BT.709
Коэффициенты матрицы                     : BT.709
Аудио #1
Идентификатор                            : 2
Формат                                   : AC-3
Формат/Информация                        : Audio Coding 3
Расширение режима                        : CM (complete main)
Параметр Endianness формата              : Big
Идентификатор кодека                     : A_AC3
Продолжительность                        : 1 ч. 32 м.
Вид битрейта                             : Постоянный
Битрейт                                  : 384 Кбит/сек
Каналы                                   : 6 каналов
Расположение каналов                     : Front: L C R, Side: L R, LFE
Частота                                  : 48,0 КГц
Битовая глубина                          : 16 бит
Метод сжатия                             : С потерями
Размер потока                            : 254 Мбайт (11%)
Заголовок                                : AC3, 6 ch, 48 kHz, 384 kbps - MVO | AlexFilm
Язык                                     : Russian
Default                                  : Да
Forced                                   : Нет
Аудио #2
Идентификатор                            : 3
Формат                                   : AC-3
Формат/Информация                        : Audio Coding 3
Расширение режима                        : CM (complete main)
Параметр Endianness формата              : Big
Идентификатор кодека                     : A_AC3
Продолжительность                        : 1 ч. 32 м.
Вид битрейта                             : Постоянный
Битрейт                                  : 384 Кбит/сек
Каналы                                   : 6 каналов
Расположение каналов                     : Front: L C R, Side: L R, LFE
Частота                                  : 48,0 КГц
Битовая глубина                          : 16 бит
Метод сжатия                             : С потерями
Размер потока                            : 254 Мбайт (11%)
Заголовок                                : AC3, 6 ch, 48 kHz, 384 kbps - Dubbing
Язык                                     : English
Default                                  : Нет
Forced                                   : Нет
Аудио #3
Идентификатор                            : 4
Формат                                   : AC-3
Формат/Информация                        : Audio Coding 3
Расширение режима                        : CM (complete main)
Параметр Endianness формата              : Big
Идентификатор кодека                     : A_AC3
Продолжительность                        : 1 ч. 32 м.
Вид битрейта                             : Постоянный
Битрейт                                  : 448 Кбит/сек
Каналы                                   : 6 каналов
Расположение каналов                     : Front: L C R, Side: L R, LFE
Частота                                  : 48,0 КГц
Битовая глубина                          : 16 бит
Метод сжатия                             : С потерями
Размер потока                            : 297 Мбайт (13%)
Заголовок                                : AC3, 6 ch, 48 kHz, 448 kbps - Original
Язык                                     : French
Default                                  : Нет
Forced                                   : Нет
Текст
Идентификатор                            : 5
Формат                                   : ASS
Идентификатор кодека                     : S_TEXT/ASS
Идентификатор кодека/Информация          : Advanced Sub Station Alpha
Метод сжатия                             : Без потерь
Заголовок                                : ASS, Songs
Язык                                     : Russian
Default                                  : Да
Forced                                   : Да
-
-Скриншоты:
-
-
Download / Скачать

Хотите скачать бесплатно? Зарегистрируйтесь на сайте (ссылка на регистрацию). Pirat.ca - самый быстрый торрент трекер в рунете!

Как скачивать  ·   Что такое торрент  ·   Рейтинг и ограничения

Goodwill

3419

Пост 25-Авг-2014 16:04 (спустя 2 месяца 7 дней)

[Q] 

Джек - Механическое Сердце / Jack and the Cuckoo-Clock Heart
в строке поиска нет такого?(((

_________________
Неведение - источник зла.
Торрентом не пользуюсь, нет необходимости.
[Профиль]  [ЛС] 

Wolf111

57108

Пост 25-Авг-2014 17:28 (спустя 1 час 23 минуты)

[Q] 

Автору респект!!!
Главный герой умрёт в конце и весь его проделанный путь за всю сюжетную линию данного мульта окажется бессмысленным,так как та кого он любил на протяжении всей жизни его отвергнет,да и вообще хэппи-энда не будит,приятного просмотра ag
[Профиль]  [ЛС] 

Goodwill

3419

Пост 25-Авг-2014 17:43 (спустя 15 минут)

[Q] 

Большое спасибо! WTF!

_________________
Неведение - источник зла.
Торрентом не пользуюсь, нет необходимости.
[Профиль]  [ЛС] 

Пост 26-Авг-2014 10:44 (спустя 17 часов)

Топик был перенесен из форума Мультфильмы (Трюм) в форум Новинки (HD|DVD|BD| TV|SAT|PDTV| - Rips)
ara1205
 

Танюха10988

Гроза морей

Пост 26-Авг-2014 14:14 (спустя 20 часов)

[Q] 

Спасибо.
[Профиль]  [ЛС] 

xTRAKSx

Штурман

Пост 26-Авг-2014 22:24 (спустя 8 часов)

[Q] 

Спасибо, посмотрим)
[Профиль]  [ЛС] 

KoNiaL_KCC

Гроза морей

Пост 26-Авг-2014 22:29 (спустя 5 минут)

[Q] 

по поводу концовки не согласен, та которую любил к нему все же прибежала. а вот от финала в шоке, куда лезет, зачем :)
[Профиль]  [ЛС] 

zlotosalien

Флибустьер

Пост 27-Авг-2014 12:56 (спустя 14 часов)

[Q] 

Мюзикл нужно смотреть либо в дубляже...либо оригинал. А многоголоска все портит...тем более голоса не очень подобраны пиратами.
[Профиль]  [ЛС] 

Jek@

Легенда

Пост 27-Авг-2014 14:37 (спустя 1 час 40 минут)

[Q] 

Спасибо!!! .
[Профиль]  [ЛС] 

ALEHAN

Легенда

Пост 28-Авг-2014 23:01 (спустя 1 день 8 часов)

[Q] 

Концовка не логичная жуть, то ли сценаристы напортачили, то ли аниматоры, но вообще не укладывается в голове. А в общем, бредовому мульту бредовая концовка может даже и к лицу)
[Профиль]  [ЛС] 

ApatoZAvR

Шкипер

Пост 22-Сен-2014 01:14 (спустя 24 дня)

[Q] 

Благодарю!
Много песен, но мультик понравился:)
[Профиль]  [ЛС] 
Показать сообщения:    
Ответить на тему

Текущее время: Сегодня 00:06

Часовой пояс: GMT + 4



Вы не можете начинать темы
Вы не можете отвечать на сообщения
Вы не можете редактировать свои сообщения
Вы не можете удалять свои сообщения
Вы не можете голосовать в опросах
Вы не можете прикреплять файлы к сообщениям
Вы не можете скачивать файлы

▼ Вниз