ML
     
  Уважаемый Гость!
Вы можете поддержать проект и зарегистрироваться у наших партнеров - онлайн-стратегия MyLands. При регистрации в игре Вы получите код, который сможете активировать после регистрации на pirat.ca и получить 1000 дублонов.

Ваш код:
f612af22ea70acf5cbe90707ac5a076d215f8f7f
 
     

Дикая планета / La planete sauvage (Рене Лалу / René Laloux) [1973 г., мультфильм, фантастика, драма, BDRip] Dub + Original (Fre)

Ответить на тему
 
Автор
Сообщение

Пост 20-Июн-2014 19:08

[Q] 

moscowpan

-Дикая планета / La planete sauvage-«A Sublime Trip to a Fine New World»- Производство: Франция, Чехословакия | Argos Films, Ceskoslovenský Filmexport, Institut National de l'Audiovisuel (INA), Krátký Film Praha, Les Films Armorial
Режиссер: Рене Лалу / René Laloux
Жанр: мультфильм, фантастика, драма
Год выпуска: 1973 г.
Продолжительность: 01:11:47
Мировая премьера: 1 декабря 1973
Релиз на DVD (РФ): 19 ноября 2009, «Новый Диск»
Перевод: Профессиональный (полное дублирование)
Оригинальный аудиопоток: французский
Роли озвучивали: Дженнифер Дрэйк, Эрик Боген, Жан Топар, Жан Вальмонт, Сильви Ленуар, Мишель Шаан, Ив Барсак, Юбер де Лаппаран, Жерар Эрнандес, Клод Джозеф-Описание: Где-то в глубинах космоса затерялась странная планета Игам. Правят ею драги — гигантские голубые существа с красными глазами, обладающие сверхвысоким уровнем развития. Кроме них на Игаме живут омы, розовотелые миниатюрные гуманоиды — одомашненные игрушки драгов.
Постепенно на Игаме разворачивается борьба угнетенных омов против своих хозяев-гигантов за теплое место под тусклым солнцем, за жизнь и свободу. В итоге драги решают полностью уничтожить омов…-Сэмпл IMDB КиноПоиск
Качество видео: BDRip
Контейнер: AVI
Видео кодек: XviD
Аудио кодек: AC3
Видео: 720x400 (1.80:1), 24.000 fps, XviD build 47 ~1991 kbps avg, 0.29 bit/pixel
Аудио: RUS, 48 kHz, AC3 Dolby Digital, 3/2 (L,C,R,l,r) + LFE ch, ~448.00 kbps avg
Аудио #2: FRA, 48 kHz, AC3 Dolby Digital, 3/2 (L,C,R,l,r) + LFE ch, ~448.00 kbps avg (Оригинал)
Cубтитры: отсутствуют
General
Complete name : ../Dikaja.planeta.1973.BDRip_[pirat.ca].avi
Format : AVI
Format/Info : Audio Video Interleave
File size : 1.46 GiB
Duration : 1h 11mn
Overall bit rate : 2 903 Kbps
Writing application : VirtualDubMod 1.5.10.2 (build 2540/release)
Writing library : VirtualDubMod build 2540/release
Video #0
ID : 0
Format : MPEG-4 Visual
Format profile : Advanced [email protected]
Format settings, BVOP : Yes
Format settings, QPel : No
Format settings, GMC : No warppoints
Format settings, Matrix : Custom
Codec ID : XVID
Codec ID/Hint : XviD
Duration : 1h 11mn
Bit rate : 1 992 Kbps
Width : 720 pixels
Height : 400 pixels
Display aspect ratio : 16:9
Frame rate : 24.000 fps
Color space : YUV
Chroma subsampling : 4:2:0
Bit depth : 8 bits
Scan type : Progressive
Compression mode : Lossy
Bits/(Pixel*Frame) : 0.288
Stream size : 1 023 MiB (69%)
Writing library : XviD 1.2.0.dev47 (UTC 2006-11-01)
Audio #1
ID : 1
Format : AC-3
Format/Info : Audio Coding 3
Mode extension : CM (complete main)
Codec ID : 2000
Duration : 1h 11mn
Bit rate mode : Constant
Bit rate : 448 Kbps
Channel(s) : 6 channels
Channel positions : Front: L C R, Side: L R, LFE
Sampling rate : 48.0 KHz
Bit depth : 16 bits
Compression mode : Lossy
Stream size : 230 MiB (15%)
Alignment : Split accross interleaves
Interleave, duration : 42 ms (1.00 video frame)
Interleave, preload duration : 500 ms
Audio #2
ID : 2
Format : AC-3
Format/Info : Audio Coding 3
Mode extension : CM (complete main)
Codec ID : 2000
Duration : 1h 11mn
Bit rate mode : Constant
Bit rate : 448 Kbps
Channel(s) : 6 channels
Channel positions : Front: L C R, Side: L R, LFE
Sampling rate : 48.0 KHz
Bit depth : 16 bits
Compression mode : Lossy
Stream size : 230 MiB (15%)
Alignment : Split accross interleaves
Interleave, duration : 42 ms (1.00 video frame)
Interleave, preload duration : 500 ms
* Мультфильм снят по роману Стефана Вуля «Омы на потоке» (1957).
* В США этот мультфильм в 1983 году демонстрировался на вечернем канале кабельной сети «Night Flight Theater».
* Слово «омы» (oms), угнетенные существа из мультфильма, происходит от французского «hommes», т.е. люди.
Download / Скачать

Хотите скачать бесплатно? Зарегистрируйтесь на сайте (ссылка на регистрацию). Pirat.ca - самый быстрый торрент трекер в рунете!

Как скачивать  ·   Что такое торрент  ·   Рейтинг и ограничения

Shura_1272

Лоцман

Пост 21-Июн-2014 20:48 (спустя 1 день 1 час)

[Q] 

Где раздача? За мульт, спасибо!!!!
[Профиль]  [ЛС] 

moscowpan ®

3434

Пост 22-Июн-2014 13:23 (спустя 16 часов)

[Q] 

Дико извиняюсь, на работе создал, но раздавать не смог. Уже дома и раздаю. Всем качать!!!

_________________
[Профиль]  [ЛС] 
Показать сообщения:    
Ответить на тему

Текущее время: Сегодня 00:29

Часовой пояс: GMT + 4



Вы не можете начинать темы
Вы не можете отвечать на сообщения
Вы не можете редактировать свои сообщения
Вы не можете удалять свои сообщения
Вы не можете голосовать в опросах
Вы не можете прикреплять файлы к сообщениям
Вы не можете скачивать файлы

▼ Вниз