ML
     
  Уважаемый Гость!
Вы можете поддержать проект и зарегистрироваться у наших партнеров - онлайн-стратегия MyLands. При регистрации в игре Вы получите код, который сможете активировать после регистрации на pirat.ca и получить 1000 дублонов.

Ваш код:
822959f93c00d34653763d5bbf9ee9a7134af98a
 
     

Лего. Фильм / The Lego Movie (Фил Лорд, Кристофер Миллер / Phil Lord, Christopher Miller) [2014 г., мультфильм, фэнтези, комедия, приключения, семейный, BDRip-AVC] Dub [лицензия] + Original (Eng) + Sub (Rus, Eng) [Jolly Roger]

Ответить на тему
 
Автор
Сообщение

Пост 23-Июн-2014 19:20

[Q] 

erchine

-Лего. Фильм / The Lego Movie- Год выпуска: 2014 г.
Производство: Австралия, США, Дания
Жанр: мультфильм, фэнтези, комедия, приключения, семейный
Продолжительность: 01:40:35
Перевод: Профессиональный (полное дублирование) [лицензия]
Оригинальный аудиопоток: английский
Режиссер: Фил Лорд, Кристофер Миллер / Phil Lord, Christopher Miller
В ролях: Крис Прэтт, Уилл Феррелл, Элизабет Бэнкс, Уилл Арнетт, Лиам Нисон, Морган Фриман, Крэйг Берри, Элисон Бри, Дэвид Берроуз, Энтони Дэниелс
Описание: Обычная лего-фигурка соглашается присоединиться к походу против злого лего-диктатора, планирующего склеить вместе всю вселенную… Качество видео: BDRip-AVC
Контейнер: MKV
Видео кодек: H.264
Аудио кодек: AC3
Видео: MPEG4 Video (H264) 960x400 23.976fps 2200 Kbps
Аудио: Dolby AC3 48000Hz 6ch 448 Kbps / Русский / Английский
Субтитры: русские, английские (отключаемые)
x264 [info]: using SAR=1/1
x264 [info]: using cpu capabilities: MMX2 SSE2Fast SSSE3 Cache64 SlowShuffle
x264 [info]: profile Main, level 4.1
x264 [info]: frame I:1660 Avg QP:13.50 size: 76336
x264 [info]: frame P:38332 Avg QP:16.61 size: 23449
x264 [info]: frame B:104709 Avg QP:19.04 size: 6050
x264 [info]: consecutive B-frames: 4.5% 4.6% 10.1% 44.2% 13.8% 16.5% 6.3%
x264 [info]: mb I I16..4: 17.8% 0.0% 82.2%
x264 [info]: mb P I16..4: 10.1% 0.0% 0.0% P16..4: 39.3% 29.0% 16.4% 0.0% 0.0% skip: 5.2%
x264 [info]: mb B I16..4: 0.7% 0.0% 0.0% B16..8: 35.8% 10.5% 3.6% direct: 5.1% skip:44.3% L0:40.8% L1:46.4% BI:12.8%
x264 [info]: direct mvs spatial:95.4% temporal:4.6%
x264 [info]: coded y,uvDC,uvAC intra: 76.0% 92.6% 79.6% inter: 20.7% 31.8% 14.6%
x264 [info]: i16 v,h,dc,p: 22% 25% 14% 39%
x264 [info]: i4 v,h,dc,ddl,ddr,vr,hd,vl,hu: 11% 11% 4% 11% 13% 11% 12% 11% 15%
x264 [info]: i8c dc,h,v,p: 34% 27% 20% 19%
x264 [info]: Weighted P-Frames: Y:5.6% UV:3.9%
x264 [info]: ref P L0: 52.7% 11.8% 16.8% 7.2% 5.6% 5.0% 0.9% 0.0%
x264 [info]: ref B L0: 76.5% 12.5% 7.1% 2.6% 1.2%
x264 [info]: ref B L1: 92.1% 7.9%
x264 [info]: kb/s:2199.11
x264 [total]: encoded 144701 frames, 1.71 fps, 2199.11 kb/s
General
Unique ID : 173675055300782002201262026058735572716 (0x82A899556C11D00B81BEA1AD819856EC)
Complete name : I:\Lego.Film.2014.H.264.BDRip-AVC.JRG.mkv
Format : Matroska
Format version : Version 4 / Version 2
File size : 2.18 GiB
Duration : 1h 40mn
Overall bit rate : 3 097 Kbps
Movie name : The Jolly Roger Release Group by http://Pirat.CA
Encoded date : UTC 2014-06-23 14:54:04
Writing application : mkvmerge v6.9.1 ('Blue Panther') 32bit built on Apr 18 2014 18:15:44
Writing library : libebml v1.3.0 + libmatroska v1.4.1
Video
ID : 1
Format : AVC
Format/Info : Advanced Video Codec
Format profile : [email protected]
Format settings, CABAC : Yes
Format settings, ReFrames : 6 frames
Codec ID : V_MPEG4/ISO/AVC
Duration : 1h 40mn
Bit rate : 2 200 Kbps
Width : 960 pixels
Height : 400 pixels
Display aspect ratio : 2.40:1
Frame rate mode : Constant
Frame rate : 23.976 fps
Color space : YUV
Chroma subsampling : 4:2:0
Bit depth : 8 bits
Scan type : Progressive
Bits/(Pixel*Frame) : 0.239
Stream size : 1.50 GiB (69%)
Writing library : x264 core 130 r2273 b3065e6
Encoding settings : cabac=1 / ref=6 / deblock=1:0:0 / analyse=0x1:0x110 / me=umh / subme=9 / psy=1 / psy_rd=1.00:0.00 / mixed_ref=1 / me_range=24 / chroma_me=1 / trellis=2 / 8x8dct=0 / cqm=0 / deadzone=21,11 / fast_pskip=0 / chroma_qp_offset=-2 / threads=3 / lookahead_threads=1 / sliced_threads=0 / nr=0 / decimate=1 / interlaced=0 / bluray_compat=0 / constrained_intra=0 / bframes=6 / b_pyramid=2 / b_adapt=2 / b_bias=0 / direct=3 / weightb=1 / open_gop=0 / weightp=2 / keyint=250 / keyint_min=23 / scenecut=40 / intra_refresh=0 / rc_lookahead=50 / rc=2pass / mbtree=1 / bitrate=2200 / ratetol=1.0 / qcomp=0.60 / qpmin=0 / qpmax=69 / qpstep=4 / cplxblur=20.0 / qblur=0.5 / ip_ratio=1.40 / aq=1:1.00
Default : Yes
Forced : No
Audio #1
ID : 2
Format : AC-3
Format/Info : Audio Coding 3
Mode extension : CM (complete main)
Format settings, Endianness : Big
Codec ID : A_AC3
Duration : 1h 40mn
Bit rate mode : Constant
Bit rate : 448 Kbps
Channel(s) : 6 channels
Channel positions : Front: L C R, Side: L R, LFE
Sampling rate : 48.0 KHz
Bit depth : 16 bits
Compression mode : Lossy
Stream size : 322 MiB (14%)
Language : Russian
Default : Yes
Forced : No
Audio #2
ID : 3
Format : AC-3
Format/Info : Audio Coding 3
Mode extension : CM (complete main)
Format settings, Endianness : Big
Codec ID : A_AC3
Duration : 1h 40mn
Bit rate mode : Constant
Bit rate : 448 Kbps
Channel(s) : 6 channels
Channel positions : Front: L C R, Side: L R, LFE
Sampling rate : 48.0 KHz
Bit depth : 16 bits
Compression mode : Lossy
Stream size : 322 MiB (14%)
Language : English
Default : No
Forced : No
Text #1
ID : 4
Format : UTF-8
Codec ID : S_TEXT/UTF8
Codec ID/Info : UTF-8 Plain Text
Language : Russian
Default : No
Forced : No
Text #2
ID : 5
Format : UTF-8
Codec ID : S_TEXT/UTF8
Codec ID/Info : UTF-8 Plain Text
Language : English
Default : No
Forced : No

Download / Скачать

Хотите скачать бесплатно? Зарегистрируйтесь на сайте (ссылка на регистрацию). Pirat.ca - самый быстрый торрент трекер в рунете!

Как скачивать  ·   Что такое торрент  ·   Рейтинг и ограничения

AndrayDrang

Шкипер

Пост 28-Июн-2014 17:57 (спустя 4 дня)

[Q] 

Всем качать!!!
Прекрасный фильм!
[Профиль]  [ЛС] 

dambrina

Флибустьер

Пост 02-Июл-2014 20:30 (спустя 4 дня)

[Q] 

посмотрел 5 минут и выключил, что-то не захотелось смотреть двигающиеся фигурки лего)
[Профиль]  [ЛС] 

haustx

Шкипер

Пост 06-Июл-2014 19:07 (спустя 3 дня)

[Q] 

для ребенка заберу...ему решать что это за шедевр...
[Профиль]  [ЛС] 

madking86

Штурман

Пост 07-Июл-2014 12:17 (спустя 17 часов)

[Q] 

Мда... не для всех...
[Профиль]  [ЛС] 

ALEHAN

Легенда

Пост 13-Июл-2014 21:12 (спустя 6 дней)

[Q] 

На удивление взрослый мульт, чем то напомнил Ральфа
[Профиль]  [ЛС] 

Artist fan

Штурман

Пост 17-Июл-2014 19:00 (спустя 3 дня)

[Q] 

Скачаю для сына...Спс
[Профиль]  [ЛС] 

oper1989

Шкипер

Пост 18-Июл-2014 09:32 (спустя 14 часов)

[Q] 

rum зачетный фильм
[Профиль]  [ЛС] 

bolin

Флибустьер

Пост 19-Июл-2014 00:18 (спустя 14 часов)

[Q] 

Раздающему спасибище! Лови бочку
[Профиль]  [ЛС] 

Начертатель

Корсар

Пост 22-Июл-2014 19:36 (спустя 3 дня)

[Q] 

глубочайший смысла мультфильм, прям на оскар

_________________
Rival
[Профиль]  [ЛС] 

Пост 31-Июл-2014 19:48 (спустя 9 дней)

Топик был перенесен из форума Новинки (HD|DVD|BD| TV|SAT|PDTV| - Rips) в форум Зарубежные полнометражные мультфильмы
kugesan
 

Lana38

Корсар

Пост 08-Янв-2015 18:24 (спустя 5 месяцев 16 дней)

[Q] 

Мульт очень занятный - интереснее будет мне кажется родителям.. Раздающему респект!
[Профиль]  [ЛС] 

Strix

Флибустьер

Пост 15-Фев-2015 09:58 (спустя 1 месяц 6 дней)

[Q] 

Круто, спасибо.
[Профиль]  [ЛС] 

firehead

Шкипер

Пост 28-Фев-2015 14:05 (спустя 13 дней)

[Q] 

Скачаю для сына...Спс
[Профиль]  [ЛС] 

lexaspirit

Пост 28-Янв-2016 15:32 (спустя 11 месяцев)

[Q] 

По началу не мог привыкнуть к фигуркам лего которые двигаются, но потом нормально. Местами есть очень смешные ситуации. Больше всего понравился Бэтмен. Он просто коры мачил

_________________
-------------------- ----------------------
[Профиль]  [ЛС] 
Показать сообщения:    
Ответить на тему

Текущее время: Сегодня 05:58

Часовой пояс: GMT + 4



Вы не можете начинать темы
Вы не можете отвечать на сообщения
Вы не можете редактировать свои сообщения
Вы не можете удалять свои сообщения
Вы не можете голосовать в опросах
Вы не можете прикреплять файлы к сообщениям
Вы не можете скачивать файлы

▼ Вниз