ML
     
  Уважаемый Гость!
Вы можете поддержать проект и зарегистрироваться у наших партнеров - онлайн-стратегия MyLands. При регистрации в игре Вы получите код, который сможете активировать после регистрации на pirat.ca и получить 1000 дублонов.

Ваш код:
8b752b428cf60a012c159dcae592cd1392170115
 
     

Рио 2 / Rio 2 (Карлос Салдана / Carlos Saldanha) [2014 г., Мультфильм, комедия, приключения, семейный, BDRip] Dub (Лицензия) + Original (Eng)

Ответить на тему
 
Автор
Сообщение

Пост 04-Июл-2014 19:59

[Q] 

LPPI

-Рио 2 / Rio 2-«It's on in the Amazon»- Производство: США, 20th Century Fox Animation, Blue Sky Studios
Год выпуска: 2014 г.
Жанр: Мультфильм, комедия, приключения, семейный
Продолжительность: 01:41:11
Мировая премьера: 20 марта 2014
Российская премьера: 20 марта 2014, «Двадцатый Век Фокс СНГ»
Дата выхода DVD: 10 июля 2014, «Двадцатый Век Фокс СНГ»
Дата выхода Blu-Ray: 10 июля 2014, «Двадцатый Век Фокс СНГ»
Перевод: Профессиональный (полное дублирование) [Лицензия]
Оригинальный аудиопоток: английский-Режиссер: Карлос Салдана / Carlos Saldanha
В ролях: Энн Хэтэуэй, Лесли Манн, Джейми Фокс, Джесси Айзенберг, Родриго Санторо, Энди Гарсиа, Трэйси Морган, Уилл Ай Эм, Джемейн Клемент, Кристин Ченоуэт-Описание: Голубчик, Жемчужинка и их трое детей живут счастливой жизнью в волшебном городе Рио-де-Жанейро. Когда Жемчужинка решает, что их детям нужно научиться жить как настоящим птицам, она настаивает на авантюрной поездке в дебри реки Амазонки. Там, пытаясь вписаться в новое окружение, Голубчик начинает беспокоиться, что может потерять Жемчужинку и детей, идущих на зов дикой природы.- -Качество видео: BDRip
Контейнер: AVI
Видео кодек: XviD
Аудио кодек: AC3
Видео: 720x304 (2.37:1), 23.976 fps, XviD build 50 ~1995 kbps avg, 0.38 bit/pixel
Аудио: 48 kHz, AC3 Dolby Digital, 3/2 (L,C,R,l,r) + LFE ch, ~448 kbps - RUS
Аудио #2: 48 kHz, AC3 Dolby Digital, 3/2 (L,C,R,l,r) + LFE ch, ~448 kbps - ENG
Cубтитры: отсутствуют
General
Complete name : D:\Rio.2.2014.XviD.BDRip.avi
Format : AVI
Format/Info : Audio Video Interleave
Format profile : OpenDML
File size : 2.05 GiB
Duration : 1h 41mn
Overall bit rate : 2 899 Kbps
Writing application : VirtualDubModRus 1.5.10.2 (build 2542/release)
Writing library : VirtualDubMod build 2542/release
Video
ID : 0
Format : MPEG-4 Visual
Format profile : Advanced [email protected]
Format settings, BVOP : 2
Format settings, QPel : No
Format settings, GMC : No warppoints
Format settings, Matrix : Default (MPEG)
Codec ID : XVID
Codec ID/Hint : XviD
Duration : 1h 41mn
Bit rate : 1 985 Kbps
Width : 720 pixels
Height : 304 pixels
Display aspect ratio : 2.35:1
Frame rate : 23.976 fps
Color space : YUV
Chroma subsampling : 4:2:0
Bit depth : 8 bits
Scan type : Progressive
Compression mode : Lossy
Bits/(Pixel*Frame) : 0.378
Stream size : 1.40 GiB (68%)
Writing library : XviD 1.2.1 (UTC 2008-12-04)
Audio #1
ID : 1
Format : AC-3
Format/Info : Audio Coding 3
Mode extension : CM (complete main)
Format settings, Endianness : Big
Codec ID : 2000
Duration : 1h 41mn
Bit rate mode : Constant
Bit rate : 448 Kbps
Channel(s) : 6 channels
Channel positions : Front: L C R, Side: L R, LFE
Sampling rate : 48.0 KHz
Bit depth : 16 bits
Compression mode : Lossy
Stream size : 324 MiB (15%)
Alignment : Split accross interleaves
Interleave, duration : 42 ms (1.00 video frame)
Interleave, preload duration : 500 ms
Audio #2
ID : 2
Format : AC-3
Format/Info : Audio Coding 3
Mode extension : CM (complete main)
Format settings, Endianness : Big
Codec ID : 2000
Duration : 1h 41mn
Bit rate mode : Constant
Bit rate : 448 Kbps
Channel(s) : 6 channels
Channel positions : Front: L C R, Side: L R, LFE
Sampling rate : 48.0 KHz
Bit depth : 16 bits
Compression mode : Lossy
Stream size : 324 MiB (15%)
Alignment : Split accross interleaves
Interleave, duration : 42 ms (1.00 video frame)
Interleave, preload duration : 500 ms
Download / Скачать

Хотите скачать бесплатно? Зарегистрируйтесь на сайте (ссылка на регистрацию). Pirat.ca - самый быстрый торрент трекер в рунете!

Как скачивать  ·   Что такое торрент  ·   Рейтинг и ограничения

velik

Штурман

Пост 04-Июл-2014 23:11 (спустя 3 часа)

[Q] 

Скорость как у черепахи anime63
[Профиль]  [ЛС] 

lecsij

Штурман

Пост 05-Июл-2014 02:13 (спустя 3 часа)

[Q] 

Лови бочку
[Профиль]  [ЛС] 

sergLyghin

Корсар

162

Пост 05-Июл-2014 13:03 (спустя 10 часов)

[Q] 

Спасибо!!! ребенок будет рад
[Профиль]  [ЛС] 

HOTTABYCHru_32_Aртём

Канонир

Пост 05-Июл-2014 18:01 (спустя 4 часа)

[Q] 

ща кочну отпишусь понравился ребёнку или нет
[Профиль]  [ЛС] 

Танюха10988

Гроза морей

Пост 09-Июл-2014 23:13 (спустя 4 дня)

[Q] 

Спасибо за мульт!!!
[Профиль]  [ЛС] 

k_2

Шкипер

Пост 10-Июл-2014 12:02 (спустя 12 часов)

[Q] 

Автору респект!!! Первая часть была норм, надеюсь и вторая не подкачает.
[Профиль]  [ЛС] 

Пост 13-Авг-2014 14:30 (спустя 1 месяц 3 дня)

Топик был перенесен из форума Новинки (HD|DVD|BD| TV|SAT|PDTV| - Rips) в форум Зарубежные полнометражные мультфильмы
kugesan
 
Показать сообщения:    
Ответить на тему

Текущее время: Сегодня 06:19

Часовой пояс: GMT + 4



Вы не можете начинать темы
Вы не можете отвечать на сообщения
Вы не можете редактировать свои сообщения
Вы не можете удалять свои сообщения
Вы не можете голосовать в опросах
Вы не можете прикреплять файлы к сообщениям
Вы не можете скачивать файлы

▼ Вниз