ML
     
  Уважаемый Гость!
Вы можете поддержать проект и зарегистрироваться у наших партнеров - онлайн-стратегия MyLands. При регистрации в игре Вы получите код, который сможете активировать после регистрации на pirat.ca и получить 1000 дублонов.

Ваш код:
5af7de75d3db09b6a37bc8bab71b0e87ccde73d6
 
     

Механика сердца / Jack et la mécanique du coeur (Стефан Берла / Stéphane Berla, Матиас Мальзьё / Mathias Malzieu) [2013 г., Мультфильм, мюзикл, фэнтези, драма, мелодрама, приключения, HDRip] MVO

Ответить на тему
 
Автор
Сообщение

Пост 11-Июл-2014 09:55

[Q] 

LPPI

-Механика сердца / Jack et la mécanique du coeur- Производство: Франция, Бельгия, EuropaCorp, Duran, France 3 Cinéma
Жанр: Мультфильм, мюзикл, фэнтези, драма, мелодрама, приключения
Год выпуска: 2013 г.
Продолжительность: 01:32:00
Мировая премьера: 17 ноября 2013
Перевод: Любительский (многоголосый, закадровый)-Режиссер: Стефан Берла / Stéphane Berla, Матиас Мальзьё / Mathias Malzieu
Роли озвучивали: Матиас Мальзьё, Оливия Руис, Гран Кор Маляд, Жан Рошфор, Росси де Пальма, Мари Винсент, Эмили Луазо, Артур Х., Дани-Описание: Джек родился в Эдинбурге, в «самый холодный день на свете», и сердце его мгновенно оледенело. Брошенного матерью мальчика усыновляет акушерка-волшебница, Докторша Мадлен. Она вставляет ему в грудь часы, которые помогают сердцу биться, но влюбляться Джеку нельзя — такого пылкого чувства хрупкая сердечная механика не выдержит. Однако подросший Джек невольно нарушает запрет, увидев на прогулке маленькую уличную певицу…-Сэмпл IMDB КиноПоиск-Качество видео: HDRip
Контейнер: AVI
Видео кодек: XviD
Аудио кодек: AC3
Видео: 720x400 (1.80:1), 24 fps, XviD build 50 ~1721 kbps avg, 0.25 bit/pixel
Аудио: 48 kHz, AC3 Dolby Digital, 3/2 (L,C,R,l,r) + LFE ch, ~384 kbps
Cубтитры: отсутствуют
General
Complete name : D:\Mehanika.Serdtsa.2013.L.HDRip.1400MB.avi
Format : AVI
Format/Info : Audio Video Interleave
File size : 1.37 GiB
Duration : 1h 32mn
Overall bit rate : 2 115 Kbps
Writing application : VirtualDubMod 1.5.10.2 (build 2540/release)
Writing library : VirtualDubMod build 2540/release
Video
ID : 0
Format : MPEG-4 Visual
Format profile : Advanced [email protected]
Format settings, BVOP : 2
Format settings, QPel : No
Format settings, GMC : No warppoints
Format settings, Matrix : Default (H.263)
Codec ID : XVID
Codec ID/Hint : XviD
Duration : 1h 32mn
Bit rate : 1 722 Kbps
Width : 720 pixels
Height : 400 pixels
Display aspect ratio : 16:9
Frame rate : 24.000 fps
Color space : YUV
Chroma subsampling : 4:2:0
Bit depth : 8 bits
Scan type : Progressive
Compression mode : Lossy
Bits/(Pixel*Frame) : 0.249
Stream size : 1.11 GiB (81%)
Writing library : XviD 1.2.1 (UTC 2008-12-04)
Audio
ID : 1
Format : AC-3
Format/Info : Audio Coding 3
Mode extension : CM (complete main)
Format settings, Endianness : Big
Codec ID : 2000
Duration : 1h 32mn
Bit rate mode : Constant
Bit rate : 384 Kbps
Channel(s) : 6 channels
Channel positions : Front: L C R, Side: L R, LFE
Sampling rate : 48.0 KHz
Bit depth : 16 bits
Compression mode : Lossy
Stream size : 254 MiB (18%)
Alignment : Split accross interleaves
Interleave, duration : 42 ms (1.00 video frame)
Interleave, preload duration : 500 ms
Download / Скачать

Хотите скачать бесплатно? Зарегистрируйтесь на сайте (ссылка на регистрацию). Pirat.ca - самый быстрый торрент трекер в рунете!

Как скачивать  ·   Что такое торрент  ·   Рейтинг и ограничения

MouseEx

Шкипер

Пост 11-Июл-2014 22:21 (спустя 12 часов)

[Q] 

Мультик просто замечательный. Спасибо! anime25

_________________
As long as a single of us stands we are legion. /Kain/
[Профиль]  [ЛС] 

Алeкс

Корсар

91

Пост 13-Июл-2014 13:38 (спустя 1 день 15 часов)

[Q] 

Спасибо, мультфильм со смыслом...мне понравился))
[Профиль]  [ЛС] 

daoniss

Штурман

Пост 14-Июл-2014 22:55 (спустя 1 день 9 часов)

[Q] 

Среди всех нынешних "мульт-шлягеров" приятно видеть что-то имеющее свое собственно лицо.
Отличный мультфильм, очень рекомендую.
[Профиль]  [ЛС] 

Skat.56

Гроза морей

448

Пост 24-Июл-2014 19:15 (спустя 9 дней)

[Q] 

Как бы не совсем то он и детский.......
Короче что то в стиле "Продавец дыма" стиль интересен сам мульт не очень.
[Профиль]  [ЛС] 

KoNiaL_KCC

Гроза морей

Пост 24-Июл-2014 22:11 (спустя 2 часа 56 минут)

[Q] 

люблю мульты Спасибо!!!
[Профиль]  [ЛС] 

Пост 13-Авг-2014 14:26 (спустя 19 дней)

Топик был перенесен из форума Новинки (HD|DVD|BD| TV|SAT|PDTV| - Rips) в форум Зарубежные полнометражные мультфильмы
kugesan
 

Eagle Ed

Шкипер

Пост 06-Мар-2015 18:09 (спустя 7 месяцев 12 дней)

[Q] 

Спасибо Ку три раза
[Профиль]  [ЛС] 

KoNiaL_KCC

Гроза морей

Пост 18-Апр-2015 01:06 (спустя 1 месяц 11 дней)

[Q] 

? для детей ? ну не знаю, может детки подросли. ромео и Джульетта в новом видение Отказать Раздающему респект!
[Профиль]  [ЛС] 
Показать сообщения:    
Ответить на тему

Текущее время: Сегодня 14:09

Часовой пояс: GMT + 4



Вы не можете начинать темы
Вы не можете отвечать на сообщения
Вы не можете редактировать свои сообщения
Вы не можете удалять свои сообщения
Вы не можете голосовать в опросах
Вы не можете прикреплять файлы к сообщениям
Вы не можете скачивать файлы

▼ Вниз